img image001 image001 image001 image001 image001 image001 image001 image001 image001 image001 image001 image001 image001 image001 image001

Planets Sun Sun Sun
Статистика раздачи
Автор: Nickolas3434 | Размер: 1.46 ГБ | Добавлен: 25 май 2014
Раздают: 224    Качают: 10
Скачать торрент
Скачать торрент
Описание торрента

СообщениеДобавлено: 25 май 2014 

Страна: Россия, Франция
Производство: Ганемфильм, МФ Свак-Банк, Мосфильм, Vakhdat

Жанр: драма, военный
Год выпуска: 1993
Продолжительность: 01:32:00

Перевод: не требуется
Оригинальная аудиодорожка: русский
Cубтитры: нет

Режиссер: Юрий Озеров

В ролях:
Пауэрс Бут, Регимантас Адомайтис, Екатерина Стриженова, Фёдор Бондарчук, Ахим Петри, Фернандо Альенде, Екатерина Урманчеева (Гечмен-Вальдек), Рональд Лэйси, Любомирас Лауцявичюс, Сергей Никоненко, Валерий Цветков, Борис Невзоров, Арчил Гомиашвили, Николай Крючков, Александр Кудинов, Роман Греков, Олег Урюмцев, Борис Левкович, Зигфрид Фосс, Эрнст Хайзе, Эрих Тиде, Юрий Лазарев, Михаил Тихонов, Николай Засухин, Оксана Фомичёва, Юрий Кузьменко, Андрей Гусев, Ольга Лебедева, Лариса Шахворостова, Артем Карапетян (текст от автора)...

Описание:
Фильм посвящен 50-летию Сталинградской битвы (1942-1943). История любви молодого сибирского парня-снайпера и девушки, волей случая ставшей жертвой знаменитого немецкого стрелка. Считается, что по мотивам этого фильма был снят "Враг у ворот" (США).





Исходник: DVD5 R5
Тип релиза: DVDRip
Контейнер: AVI

Видео: 672x512 (4:3), 25 fps, XviD ~ 2065 kbps avg, 0.240 bit/pixel
Аудио: 48 kHz, Dolby Digital AC3 2.0, 192 kbps

Раздача от:
Общее
Полное имя : Angely.Smerti.1993.DVDRip_[New-team]_by_AVP_Studio.avi
Формат : AVI
Формат/Информация : Audio Video Interleave
Размер файла : 1,46 Гбайт
Продолжительность : 1 ч. 32 м.
Общий поток : 2267 Кбит/сек
Программа кодирования : VirtualDubModRus 1.5.10.2 (build 2542/release)
Библиотека кодирования : VirtualDubMod build 2542/release

Видео
Идентификатор : 0
Формат : MPEG-4 Visual
Профиль формата : Advanced Simple@L5
Параметр BVOP формата : 1
Параметр QPel формата : Нет
Параметр GMC формата : Без точки перехода
Параметр матрицы формата : Выборочная
Идентификатор кодека : XVID
Идентификатор кодека/Подсказка : XviD
Продолжительность : 1 ч. 32 м.
Битрейт : 2065 Кбит/сек
Ширина : 672 пикселя
Высота : 512 пикселей
Соотношение сторон : 4:3
Частота кадров : 25,000 кадров/сек
Цветовое пространство : YUV
Субдискретизация насыщенности : 4:2:0
Битовая глубина : 8 бит
Тип развёртки : Прогрессивная
Метод сжатия : С потерями
Бит/(Пиксели*Кадры) : 0.240
Размер потока : 1,33 Гбайт (91%)
Библиотека кодирования : XviD 73

Аудио
Идентификатор : 1
Формат : AC-3
Формат/Информация : Audio Coding 3
Расширение режима : CM (complete main)
Параметр Endianness формата : Big
Идентификатор кодека : 2000
Продолжительность : 1 ч. 32 м.
Вид битрейта : Постоянный
Битрейт : 192 Кбит/сек
Каналы : 2 канала
Расположение каналов : Front: L R
Частота : 48,0 КГц
Битовая глубина : 16 бит
Метод сжатия : С потерями
Размер потока : 126 Мбайт (8%)
Выравнивание : Разделение по промежуткам
Продолжительность промежутка : 40 мс. (1,00 видеокадр)
Время предзагрузки промежутка : 500 мс





   Похожие торренты   Торрент   Размер 
В этой теме нет новых непрочитанных сообщений. Ангелы смерти (1993) DVDRip-AVC от New-Team

26 | 7

1.46 ГБ

В этой теме нет новых непрочитанных сообщений. Ангелы смерти (1993) DVDRip от Alekxandr48

13 | 4

700.81 МБ

В этой теме нет новых непрочитанных сообщений. Ангелы Смерти / Burst Angel [01-24 из 24] (2004) DVDRip

12 | 3

7.04 ГБ

В этой теме нет новых непрочитанных сообщений. Ангелы смерти 2: Секретные операции второй мировой (2007) PC

8 | 3

4.2 ГБ

В этой теме нет новых непрочитанных сообщений. Ангелы смерти: Дилогия (2006-2007) PC | RePack от Sash HD

2 | 2

4.36 ГБ

В этой теме нет новых непрочитанных сообщений. Приговоренный к смерти / Last Light (1993) DVDRip

3 | 6

1.37 ГБ

В этой теме нет новых непрочитанных сообщений. Черные Ангелы / Black Angels / Burakku Enjeruzu (2011) DVDRip от BTT-TEAM

82 | 22

1.39 ГБ




Вы не можете начинать темы
Вы не можете отвечать на сообщения
Вы не можете редактировать свои сообщения
Вы не можете удалять свои сообщения
Вы не можете добавлять вложения

Перейти:  
Для Мосгорсуда, Роскомнадзора и рекламодателей: mosgorsud-torrent[собачка]yandex.ru
 Вход
ppkBB3cker v.2 © 2008-2014 @ PPK
[ Time : 0.026s | 15 Queries | GZIP : On ]

Торрент трекер RUTOR.IN, Не можете зайти на rutor.org? Какой новый адрес рутор? Какое зеркало рутор? Не работает rutor.org и зеркала? Тогда наш торрент специально для вас. Rutor.in неофициальное зеркало rutor. В случае если у Вас заблокирован rutor или вдруг Вы не можете на него зайти, то Вы без труда сможете скачать бесплатно и без рекламы последние новинки кино, игр, сериалов и прочего у нас, на Rutor.in. Не нужно использовать прокси, чтобы зайти на рутор, достаточно воспользоваться нашим ресурсом. Все новые фильмы, игры, сериалы, книги и музыка за 2013 и 2014 годы через торрент бесплатно. Скачивайте фильмы в хорошем качестве, игры для пк, xbox, playstation без регистрации. У нас вы найдете новые Зарубежные сериалы и Русские сериалы 2013, 2014, 2015 годов. Оставайтесь с нами, качайте любимые фильмы, игры, сериалы, книги и музыку.