img image001 image001 image001 image001 image001 image001 image001 image001 image001 image001 image001 image001 image001 image001 image001

Planets Sun Sun Sun
Статистика раздачи
Автор: Nickolas3434 | Размер: 6.27 ГБ | Добавлен: 25 май 2014
Раздают: 653    Качают: 65
Скачать торрент
Скачать торрент
Описание торрента

СообщениеДобавлено: 25 май 2014 

Информация о фильме
Название: Трудно быть Богом
Год выхода: 2013
Жанр: фантастика, драма
Режиссер: Алексей Герман
В ролях: Леонид Ярмольник, Юрий Цурило, Наталья Мотева, Александр Чутко, Евгений Герчаков, Валентин Голубенко, Пётр Меркурьев, Олег Ботин, Константин Быков, Юрий Думчев

О фильме: На планете, погружённой в глухое Средневековье, работают наблюдатели-земляне, которые пытаются бережно подправлять ход событий, не нарушая логическое развитие истории. Главный герой, дон Румата Эсторский, осознавая свою задачу сохранения нейтралитета, тем не менее, не выдерживает, когда в Арканаре (одном из городов планеты) захватывает власть «чёрное братство», свергнувшее господство «серых», столь же отвратительных, но не столь кровавых. Румата берётся за меч, чтобы покарать злодеев, и тем самым нарушает все правила и закономерности, вмешиваясь в чужой исторический процесс.



Выпущено: Студия Север
Продолжительность: 02:57:13
Перевод: Оригинал (лицензия)

Файл
Кодек: x264
Качество: BDRip (источник: Blu-ray Disc)
Видео: 1244x720 (1,73:1), 24 fps, 4430 kbps
Аудио: AC-3, 6 ch, 640 kbps
Скачать: сэмпл

Скриншоты

Общее
Уникальный идентификатор : 187139721114838336322910644504125361023 (0x8CC9CC9CD2C6BDFE8454C0DF5CD5CB7F)
Полное имя : Trydno.byt.Bogom.2013.BDRip.720p.Rus.mkv
Формат : Matroska
Версия формата : Version 2
Размер файла : 6,27 Гбайт
Продолжительность : 2 ч. 57 м.
Общий поток : 5068 Кбит/сек
Название фильма : Трудно быть Богом (2013)
Дата кодирования : UTC 2014-05-18 12:11:42
Программа кодирования : mkvmerge v5.8.0 ('No Sleep / Pillow') built on Sep 2 2012 15:37:04
Библиотека кодирования : libebml v1.2.3 + libmatroska v1.3.0

Видео
Идентификатор : 1
Формат : AVC
Формат/Информация : Advanced Video Codec
Профиль формата : High@L4.1
Параметр CABAC формата : Да
Параметр ReFrames формата : 9 кадров
Идентификатор кодека : V_MPEG4/ISO/AVC
Продолжительность : 2 ч. 57 м.
Битрейт : 4426 Кбит/сек
Ширина : 1244 пикселя
Высота : 720 пикселей
Соотношение сторон : 1,728
Режим частоты кадров : Постоянный
Частота кадров : 24,000 кадра/сек
Цветовое пространство : YUV
Субдискретизация насыщенности : 4:2:0
Битовая глубина : 8 бит
Тип развёртки : Прогрессивная
Бит/(Пиксели*Кадры) : 0.206
Размер потока : 5,36 Гбайт (85%)
Заголовок : Release by AlexKa
Библиотека кодирования : x264 core 142 r2431 ac76440
Настройки программы : cabac=1 / ref=9 / deblock=1:-3:-3 / analyse=0x3:0x133 / me=umh / subme=11 / psy=1 / psy_rd=1.00:0.00 / mixed_ref=1 / me_range=32 / chroma_me=1 / trellis=2 / 8x8dct=1 / cqm=0 / deadzone=21,11 / fast_pskip=0 / chroma_qp_offset=-2 / threads=12 / lookahead_threads=2 / sliced_threads=0 / nr=0 / decimate=1 / interlaced=0 / bluray_compat=0 / constrained_intra=0 / bframes=7 / b_pyramid=2 / b_adapt=2 / b_bias=0 / direct=3 / weightb=1 / open_gop=0 / weightp=2 / keyint=240 / keyint_min=24 / scenecut=40 / intra_refresh=0 / rc=2pass / mbtree=0 / bitrate=4426 / ratetol=1.0 / qcomp=0.60 / qpmin=0 / qpmax=69 / qpstep=4 / cplxblur=20.0 / qblur=0.5 / ip_ratio=1.40 / pb_ratio=1.30 / aq=1:1.00
Язык : Russian

Аудио
Идентификатор : 2
Формат : AC-3
Формат/Информация : Audio Coding 3
Расширение режима : CM (complete main)
Параметр Endianness формата : Big
Идентификатор кодека : A_AC3
Продолжительность : 2 ч. 57 м.
Вид битрейта : Постоянный
Битрейт : 640 Кбит/сек
Каналы : 6 каналов
Расположение каналов : Front: L C R, Side: L R, LFE
Частота : 48,0 КГц
Битовая глубина : 16 бит
Метод сжатия : С потерями
Размер потока : 811 Мбайт (13%)
Заголовок : Rus
Язык : Russian

Меню
00:00:00.000 : :Chapter 01
00:15:48.000 : :Chapter 02
00:31:27.666 : :Chapter 03
00:42:22.041 : :Chapter 04
00:58:06.083 : :Chapter 05
01:13:14.125 : :Chapter 06
01:33:16.666 : :Chapter 07
01:42:07.958 : :Chapter 08
01:59:51.000 : :Chapter 09
02:11:33.916 : :Chapter 10
02:26:10.458 : :Chapter 11
02:36:20.000 : :Chapter 12
02:57:13.166 : :Chapter 13
x264 [info]: frame I:1106 Avg QP:19.32 size: 75175
x264 [info]: frame P:59742 Avg QP:22.30 size: 37011
x264 [info]: frame B:194349 Avg QP:24.90 size: 18463
x264 [info]: consecutive B-frames: 1.3% 2.8% 11.4% 33.3% 19.2% 27.6% 3.5% 1.0%



   Похожие торренты   Торрент   Размер 
В этой теме нет новых непрочитанных сообщений. Трудно быть Богом (2013) WEB-DL 720p | iTunes

593 | 336

5.7 ГБ

В этой теме нет новых непрочитанных сообщений. Трудно быть Богом (2013) BDRip-AVC от ExKinoRay

99 | 4

4.89 ГБ

В этой теме нет новых непрочитанных сообщений. Трудно быть Богом (2013) BDRip от -=HD-NET=- | Лицензия

164 | 9

2.74 ГБ

В этой теме нет новых непрочитанных сообщений. Трудно быть богом (2013) BDRip 1080p

170 | 22

15.3 ГБ

В этой теме нет новых непрочитанных сообщений. Трудно быть Богом (2013) BDRip-AVC | iPad

73 | 11

5.12 ГБ

В этой теме нет новых непрочитанных сообщений. Трудно быть Богом (2013) BDRip от HQCLUB | Лицензия

962 | 33

2.91 ГБ

В этой теме нет новых непрочитанных сообщений. Трудно быть Богом (2013) BDRip-AVC от HELLYWOOD | Лицензия

348 | 12

4.37 ГБ




Вы не можете начинать темы
Вы не можете отвечать на сообщения
Вы не можете редактировать свои сообщения
Вы не можете удалять свои сообщения
Вы не можете добавлять вложения

Перейти:  
Для Мосгорсуда, Роскомнадзора и рекламодателей: mosgorsud-torrent[собачка]yandex.ru
 Вход
ppkBB3cker v.2 © 2008-2014 @ PPK
[ Time : 0.031s | 15 Queries | GZIP : Off ]

Торрент трекер RUTOR.IN, Не можете зайти на rutor.org? Какой новый адрес рутор? Какое зеркало рутор? Не работает rutor.org и зеркала? Тогда наш торрент специально для вас. Rutor.in неофициальное зеркало rutor. В случае если у Вас заблокирован rutor или вдруг Вы не можете на него зайти, то Вы без труда сможете скачать бесплатно и без рекламы последние новинки кино, игр, сериалов и прочего у нас, на Rutor.in. Не нужно использовать прокси, чтобы зайти на рутор, достаточно воспользоваться нашим ресурсом. Все новые фильмы, игры, сериалы, книги и музыка за 2013 и 2014 годы через торрент бесплатно. Скачивайте фильмы в хорошем качестве, игры для пк, xbox, playstation без регистрации. У нас вы найдете новые Зарубежные сериалы и Русские сериалы 2013, 2014, 2015 годов. Оставайтесь с нами, качайте любимые фильмы, игры, сериалы, книги и музыку.