img image001 image001 image001 image001 image001 image001 image001 image001 image001 image001 image001 image001 image001 image001 image001

Planets Sun Sun Sun
Статистика раздачи
Автор: Nickolas3434 | Размер: 4.89 ГБ | Добавлен: 25 май 2014
Раздают: 99    Качают: 4
Скачать торрент
Скачать торрент
Описание торрента

СообщениеДобавлено: 25 май 2014 

Информация о фильме

Оригинальное название: Трудно быть Богом
Год выпуска: 2013
Жанр: Фантастика, драма, экранизация
Выпущено: Россия, Ленфильм, Министерство культуры Российской Федерации, Студия Север
Режиссер: Алексей Герман
В ролях: Леонид Ярмольник, Юрий Цурило, Наталья Мотева, Александр Чутко, Евгений Герчаков, Александр Ильин, Пётр Меркурьев, Олег Ботин, Константин Быков, Юрий Думчев
О фильме: На планете, погружённой в глухое Средневековье, работают наблюдатели-земляне, которые пытаются бережно подправлять ход событий, не нарушая логическое развитие истории. Главный герой, дон Румата Эсторский, осознавая свою задачу сохранения нейтралитета, тем не менее, не выдерживает, когда в Арканаре (одном из городов планеты) захватывает власть «чёрное братство», свергнувшее господство «серых», столь же отвратительных, но не столь кровавых. Румата берётся за меч, чтобы покарать злодеев, и тем самым нарушает все правила и закономерности, вмешиваясь в чужой исторический процесс.

Файл

Качество: BDRip (AVC)
Видео: MPEG-4 AVC, 3500 Кбит/с, 996x576, 24 кадр/с
Аудио: AC3, 6 ch, 448 Кбит/с
Размер: 4.89 ГБ
Продолжительность: 02:57:13
Язык: Русский
Сохранены оригинальные чаптеры как на Blu-Ray.
x264 [info]: frame I:1105 Avg QP:19.06 size: 65452
x264 [info]: frame P:61303 Avg QP:22.25 size: 30564
x264 [info]: frame B:192789 Avg QP:24.81 size: 14035
-------------------------------------------------------
Общее
Уникальный идентификатор : 241437432611061344125812097857805523603 (0xB5A3287A4D001005B97B65B9E92E9A93)
Полное имя : D:ЗагрузкиTrudno.Bit.Bogom.2013.x264.BDRip(AVC).ExKinoRay.mkv
Формат : Matroska
Версия формата : Version 2
Размер файла : 4,89 Гбайт
Продолжительность : 2 ч. 57 м.
Общий поток : 3950 Кбит/сек
Название фильма : Трудно быть Богом.2013.Rip by: ollan
Дата кодирования : UTC 2014-05-20 06:16:55
Программа кодирования : mkvmerge v5.6.0 ('Kenya Kane') built on May 27 2012 16:44:04
Библиотека кодирования : libebml v1.2.3 + libmatroska v1.3.0
Attachment : Yes

Видео
Идентификатор : 1
Формат : AVC
Формат/Информация : Advanced Video Codec
Профиль формата : High@L4.1
Параметр CABAC формата : Да
Параметр ReFrames формата : 9 кадров
Идентификатор кодека : V_MPEG4/ISO/AVC
Продолжительность : 2 ч. 57 м.
Битрейт : 3500 Кбит/сек
Ширина : 996 пикселей
Высота : 576 пикселей
Соотношение сторон : 1,729
Режим частоты кадров : Постоянный
Частота кадров : 24,000 кадра/сек
Цветовое пространство : YUV
Субдискретизация насыщенности : 4:2:0
Битовая глубина : 8 бит
Тип развёртки : Прогрессивная
Бит/(Пиксели*Кадры) : 0.254
Размер потока : 4,24 Гбайт (87%)
Библиотека кодирования : x264 core 125 r2200 999b753
Настройки программы : cabac=1 / ref=9 / deblock=1:-2:-2 / analyse=0x3:0x133 / me=umh / subme=11 / psy=1 / psy_rd=1.00:0.10 / mixed_ref=1 / me_range=32 / chroma_me=1 / trellis=2 / 8x8dct=1 / cqm=0 / deadzone=21,11 / fast_pskip=0 / chroma_qp_offset=-3 / threads=12 / lookahead_threads=2 / sliced_threads=0 / nr=0 / decimate=0 / interlaced=0 / bluray_compat=0 / constrained_intra=0 / bframes=9 / b_pyramid=2 / b_adapt=2 / b_bias=0 / direct=3 / weightb=1 / open_gop=0 / weightp=2 / keyint=240 / keyint_min=23 / scenecut=40 / intra_refresh=0 / rc_lookahead=40 / rc=2pass / mbtree=1 / bitrate=3500 / ratetol=1.0 / qcomp=0.60 / qpmin=0 / qpmax=69 / qpstep=4 / cplxblur=20.0 / qblur=0.5 / ip_ratio=1.40 / aq=1:1.00
Язык : Russian
Default : Да
Forced : Нет

Аудио
Идентификатор : 2
Формат : AC-3
Формат/Информация : Audio Coding 3
Расширение режима : CM (complete main)
Параметр Endianness формата : Big
Идентификатор кодека : A_AC3
Продолжительность : 2 ч. 57 м.
Вид битрейта : Постоянный
Битрейт : 448 Кбит/сек
Каналы : 6 каналов
Расположение каналов : Front: L C R, Side: L R, LFE
Частота : 48,0 КГц
Битовая глубина : 16 бит
Метод сжатия : С потерями
Размер потока : 568 Мбайт (11%)
Язык : Russian
Default : Да
Forced : Нет

Меню
00:00:00.000 : ru:Chapter 1
00:15:48.000 : ru:Chapter 2
00:31:27.666 : ru:Chapter 3
00:42:22.041 : ru:Chapter 4
00:58:06.083 : ru:Chapter 5
01:13:14.125 : ru:Chapter 6
01:33:16.666 : ru:Chapter 7
01:42:07.958 : ru:Chapter 8
01:59:51.000 : ru:Chapter 9
02:11:33.916 : ru:Chapter 10
02:26:10.458 : ru:Chapter 11
02:36:20.000 : ru:Chapter 12








Релиз от: Rip by:



   Похожие торренты   Торрент   Размер 
В этой теме нет новых непрочитанных сообщений. Трудно быть богом (2013) BDRip 1080p

161 | 25

15.3 ГБ

В этой теме нет новых непрочитанных сообщений. Трудно быть Богом (2013) BDRip-AVC | iPad

73 | 11

5.12 ГБ

В этой теме нет новых непрочитанных сообщений. Трудно быть Богом (2013) BDRip 720p

653 | 65

6.27 ГБ

В этой теме нет новых непрочитанных сообщений. Трудно быть Богом (2013) BDRip от -=HD-NET=- | Лицензия

164 | 9

2.74 ГБ

В этой теме нет новых непрочитанных сообщений. Трудно быть Богом (2013) BDRip от HQCLUB | Лицензия

962 | 33

2.91 ГБ

В этой теме нет новых непрочитанных сообщений. Трудно быть Богом (2013) BDRip-AVC от HELLYWOOD | Лицензия

348 | 12

4.37 ГБ

В этой теме нет новых непрочитанных сообщений. Трудно быть Богом (2013) WEB-DLRip | iTunes

1555 | 606

2.05 ГБ




Вы не можете начинать темы
Вы не можете отвечать на сообщения
Вы не можете редактировать свои сообщения
Вы не можете удалять свои сообщения
Вы не можете добавлять вложения

Перейти:  
Для Мосгорсуда, Роскомнадзора и рекламодателей: mosgorsud-torrent[собачка]yandex.ru
 Вход
ppkBB3cker v.2 © 2008-2014 @ PPK
[ Time : 0.045s | 14 Queries | GZIP : Off ]

Торрент трекер RUTOR.IN, Не можете зайти на rutor.org? Какой новый адрес рутор? Какое зеркало рутор? Не работает rutor.org и зеркала? Тогда наш торрент специально для вас. Rutor.in неофициальное зеркало rutor. В случае если у Вас заблокирован rutor или вдруг Вы не можете на него зайти, то Вы без труда сможете скачать бесплатно и без рекламы последние новинки кино, игр, сериалов и прочего у нас, на Rutor.in. Не нужно использовать прокси, чтобы зайти на рутор, достаточно воспользоваться нашим ресурсом. Все новые фильмы, игры, сериалы, книги и музыка за 2013 и 2014 годы через торрент бесплатно. Скачивайте фильмы в хорошем качестве, игры для пк, xbox, playstation без регистрации. У нас вы найдете новые Зарубежные сериалы и Русские сериалы 2013, 2014, 2015 годов. Оставайтесь с нами, качайте любимые фильмы, игры, сериалы, книги и музыку.