img image001 image001 image001 image001 image001 image001 image001 image001 image001 image001 image001 image001 image001 image001 image001

Planets Sun Sun Sun
Статистика раздачи
Автор: Nickolas3434 | Размер: 368.12 МБ | Добавлен: 25 май 2014
Раздают: 51    Качают: 3
Скачать торрент
Скачать торрент
Описание торрента

СообщениеДобавлено: 25 май 2014 

Информация о фильме
Оригинальное название: ДОЛЛ
Год выпуска: 2014
Жанр: Драма, фантастика, короткометражный
Выпущено: Россия, V & E Entertainment
Режиссер: Виктор Сидоров
В ролях: Андрей Мерзликин, Стас Классен, Татьяна Ермилова, Александра Виноградова

О фильме: Он - обычный менеджер крупной компании, живущий в маленькой квартирке в захудалом районе города будущего. Он не может избавится от чувства ненависти к своему боссу Рудольфу. Потребность выпустить пар приводит Михаила в офис компании «Новая жизнь», имплантирующей в память своих клиентов фантазии, которые они могут воплотить, не рискуя при этом пережить события в реальности. Пока герой выбирает, как именно ему убить Рудольфа, в ситуацию вмешивается красавица Виктория. Забыв о контракте и его правилах, Михаил совершает непоправимые ошибки. Теперь время работает против него. Сможет ли он вернуть время назад?

Файл
Качество: WEB-DLRip (AVC)
Видео: MPEG-4 AVC, 1420 Кбит/с, 1024x456
Аудио: AC3, 6 ch, 384 Кбит/с
Продолжительность: 00:28:30
Язык: Русский [iTunes]
Субтитры: Английские

General
Unique ID : 170689494611181171310567120301989946733 (0x806999D3B0EB8EC2A1CCD79365FDE56D)
Complete name : C:DOLL.2014.WEB-DLRip.AVC.ExKinoRay.mkv
Format : Matroska
Format version : Version 2
File size : 368 MiB
Duration : 28mn 29s
Overall bit rate : 1 806 Kbps
Movie name : DOLL from ExKinoRay
Encoded date : UTC 2014-05-20 06:26:13
Writing application : mkvmerge v4.9.1 ('Ich will') built on Jul 11 2011 23:53:15
Writing library : libebml v1.2.1 + libmatroska v1.1.1

Video
ID : 1
Format : AVC
Format/Info : Advanced Video Codec
Format profile : High@L4.1
Format settings, CABAC : Yes
Format settings, ReFrames : 8 frames
Codec ID : V_MPEG4/ISO/AVC
Duration : 28mn 29s
Bit rate : 1 420 Kbps
Width : 1 024 pixels
Height : 456 pixels
Display aspect ratio : 2.25:1
Frame rate mode : Constant
Frame rate : 25.000 fps
Color space : YUV
Chroma subsampling : 4:2:0
Bit depth : 8 bits
Scan type : Progressive
Bits/(Pixel*Frame) : 0.122
Stream size : 283 MiB (77%)
Title : Enigma
Writing library : x264 core 116 r2044 392e762
Encoding settings : cabac=1 / ref=8 / deblock=1:-2:-2 / analyse=0x3:0x113 / me=umh / subme=9 / psy=1 / psy_rd=1.00:0.20 / mixed_ref=1 / me_range=32 / chroma_me=1 / trellis=2 / 8x8dct=1 / cqm=0 / deadzone=21,11 / fast_pskip=0 / chroma_qp_offset=-3 / threads=12 / sliced_threads=0 / nr=0 / decimate=0 / interlaced=0 / bluray_compat=0 / constrained_intra=0 / bframes=8 / b_pyramid=2 / b_adapt=2 / b_bias=0 / direct=3 / weightb=1 / open_gop=0 / weightp=2 / keyint=250 / keyint_min=25 / scenecut=40 / intra_refresh=0 / rc=2pass / mbtree=0 / bitrate=1420 / ratetol=1.0 / qcomp=0.60 / qpmin=0 / qpmax=69 / qpstep=4 / cplxblur=20.0 / qblur=0.5 / ip_ratio=1.40 / pb_ratio=1.30 / aq=1:1.00
Default : Yes
Forced : No

Audio
ID : 2
Format : AC-3
Format/Info : Audio Coding 3
Mode extension : CM (complete main)
Format settings, Endianness : Big
Codec ID : A_AC3
Duration : 28mn 29s
Bit rate mode : Constant
Bit rate : 384 Kbps
Channel(s) : 6 channels
Channel positions : Front: L C R, Side: L R, LFE
Sampling rate : 48.0 KHz
Bit depth : 16 bits
Compression mode : Lossy
Stream size : 78.3 MiB (21%)
Language : Russian
Default : Yes
Forced : No

Text
ID : 3
Format : UTF-8
Codec ID : S_TEXT/UTF8
Codec ID/Info : UTF-8 Plain Text
Language : English
Default : No
Forced : No






Релиз от:

Авторы релиза:



   Похожие торренты   Торрент   Размер 
В этой теме нет новых непрочитанных сообщений. ДОЛЛ (2014) WEB-DLRip | iTunes

330 | 11

527.09 МБ

В этой теме нет новых непрочитанных сообщений. Долл и Эм / Doll and Em [S01] (2014) HDTVRip от HamsterStudio

0 | 0

1.07 ГБ

В этой теме нет новых непрочитанных сообщений. Спираль (2014) WEB-DLRip-AVC от ExKinoRay | iTunes

178 | 54

1.67 ГБ

В этой теме нет новых непрочитанных сообщений. 22 минуты (2014) WEB-DLRip-AVC от ExKinoRay | iTunes

223 | 7

1.9 ГБ

В этой теме нет новых непрочитанных сообщений. Мамы 3 (2014) WEB-DLRip-AVC от ExKinoRay | iTunes

164 | 3

1.46 ГБ

В этой теме нет новых непрочитанных сообщений. Восьмерка (2014) WEB-DLRip-AVC от ExKinoRay | iTunes

1990 | 111

1.73 ГБ

В этой теме нет новых непрочитанных сообщений. Дурак (2014) WEB-DLRip-AVC от ExKinoRay | iTunes

6734 | 297

1.65 ГБ




Вы не можете начинать темы
Вы не можете отвечать на сообщения
Вы не можете редактировать свои сообщения
Вы не можете удалять свои сообщения
Вы не можете добавлять вложения

Перейти:  
Для Мосгорсуда, Роскомнадзора и рекламодателей: mosgorsud-torrent[собачка]yandex.ru
 Вход
ppkBB3cker v.2 © 2008-2014 @ PPK
[ Time : 0.065s | 15 Queries | GZIP : Off ]

Торрент трекер RUTOR.IN, Не можете зайти на rutor.org? Какой новый адрес рутор? Какое зеркало рутор? Не работает rutor.org и зеркала? Тогда наш торрент специально для вас. Rutor.in неофициальное зеркало rutor. В случае если у Вас заблокирован rutor или вдруг Вы не можете на него зайти, то Вы без труда сможете скачать бесплатно и без рекламы последние новинки кино, игр, сериалов и прочего у нас, на Rutor.in. Не нужно использовать прокси, чтобы зайти на рутор, достаточно воспользоваться нашим ресурсом. Все новые фильмы, игры, сериалы, книги и музыка за 2013 и 2014 годы через торрент бесплатно. Скачивайте фильмы в хорошем качестве, игры для пк, xbox, playstation без регистрации. У нас вы найдете новые Зарубежные сериалы и Русские сериалы 2013, 2014, 2015 годов. Оставайтесь с нами, качайте любимые фильмы, игры, сериалы, книги и музыку.