img image001 image001 image001 image001 image001 image001 image001 image001 image001 image001 image001 image001 image001 image001 image001

Planets Sun Sun Sun
Статистика раздачи
Автор: Nickolas3434 | Размер: 1.45 ГБ | Добавлен: 25 май 2014
Раздают: 382    Качают: 15
Скачать торрент
Скачать торрент
Описание торрента

СообщениеДобавлено: 25 май 2014 

«Поиск мечты»




Страна: Россия / Данаис Фильм

Жанр: биография, драма
Год выпуска: 2014
Продолжительность: 01:26:04

Перевод: Не требуется
Cубтитры: нет
Оригинальная аудиодорожка: русский

Режиссер: Евгений Ткачук

В ролях: Евгений Ткачук, Шамиль Хаматов, Иева Андреевайте, Семен Морозов, Эммануил Виторган, Андрей Соколов, Дмитрий Богдан, Вера Панфилова, Антон Шурцов, Андрей Назимов...

Описание: Как в России честно заработать своим умом? Как добиться успеха и утвердить свое имя в мире бизнеса? Чем жертвует и что приобретает человек, который много лет стремится к своей цели? История создания с нуля крупного российского поискового портала. 20 лет риска, трудов, надежды, 20 лет дружбы…



Качество: DVDRip / DVD5 R5 от Paradise
Формат: AVI

Видео: 720x304 (2.35:1), 25.000 fps, XviD, ~2021 kbps avg, 0.369 bit/pix
Аудио: 48 kHz, Dolby AC3, 6 ch, 384 kbps, русский

Раздача от:
Общее
Полное имя : Startap.2014.O.DVDRip_[New-Team]_by_avproh.avi
Формат : AVI
Формат/Информация : Audio Video Interleave
Размер файла : 1,45 Гбайт
Продолжительность : 1 ч. 26 м.
Общий поток : 2415 Кбит/сек
Программа кодирования : VirtualDubMod 1.5.10.3 | www.virtualdub-fr.org || (build 2550/release)
Библиотека кодирования : VirtualDubMod build 2550/release

Видео
Идентификатор : 0
Формат : MPEG-4 Visual
Профиль формата : Advanced Simple@L5
Параметр BVOP формата : 1
Параметр QPel формата : Нет
Параметр GMC формата : Без точки перехода
Параметр матрицы формата : Выборочная
Идентификатор кодека : XVID
Идентификатор кодека/Подсказка : XviD
Продолжительность : 1 ч. 26 м.
Битрейт : 2021 Кбит/сек
Ширина : 720 пикселей
Высота : 304 пикселя
Соотношение сторон : 2,35:1
Частота кадров : 25,000 кадров/сек
Цветовое пространство : YUV
Субдискретизация насыщенности : 4:2:0
Битовая глубина : 8 бит
Тип развёртки : Прогрессивная
Метод сжатия : С потерями
Бит/(Пиксели*Кадры) : 0.369
Размер потока : 1,22 Гбайт (84%)
Библиотека кодирования : XviD 73

Аудио
Идентификатор : 1
Формат : AC-3
Формат/Информация : Audio Coding 3
Расширение режима : CM (complete main)
Параметр Endianness формата : Big
Идентификатор кодека : 2000
Продолжительность : 1 ч. 26 м.
Вид битрейта : Постоянный
Битрейт : 384 Кбит/сек
Каналы : 6 каналов
Расположение каналов : Front: L C R, Side: L R, LFE
Частота : 48,0 КГц
Битовая глубина : 16 бит
Метод сжатия : С потерями
Размер потока : 236 Мбайт (16%)
Выравнивание : Разделение по промежуткам
Продолжительность промежутка : 40 мс. (1,00 видеокадр)
Время предзагрузки промежутка : 500 мс.



WEB-DLRip: http://screenshotcomparison.com/comparison/75561 - у WEB-DLRip сильно обрезана картинка по бокам.



   Похожие торренты   Торрент   Размер 
В этой теме нет новых непрочитанных сообщений. Стартап (2014) DVDRip-AVC от New-Team | лицензия

343 | 12

1.46 ГБ

В этой теме нет новых непрочитанных сообщений. Стартап (2014) DVDRip от New-Team | лицензия

63 | 2

745.15 МБ

В этой теме нет новых непрочитанных сообщений. Стартап (2014) DVD5 R5 от New-Team | лицензия

25 | 4

3.69 ГБ

В этой теме нет новых непрочитанных сообщений. Стартап (2014) DVDRip-AVC от RG WazZzuP | Лицензия

105 | 2

744.58 МБ

В этой теме нет новых непрочитанных сообщений. Стартап (2014) WEB-DL 1080p | Лицензия

239 | 13

2.63 ГБ

В этой теме нет новых непрочитанных сообщений. Стартап (2014) TS

578 | 140

1.37 ГБ

В этой теме нет новых непрочитанных сообщений. Стартап (2014) WEB-DLRip

1399 | 100

1.37 ГБ




Вы не можете начинать темы
Вы не можете отвечать на сообщения
Вы не можете редактировать свои сообщения
Вы не можете удалять свои сообщения
Вы не можете добавлять вложения

Перейти:  
Для Мосгорсуда, Роскомнадзора и рекламодателей: mosgorsud-torrent[собачка]yandex.ru
 Вход
ppkBB3cker v.2 © 2008-2014 @ PPK
[ Time : 0.058s | 15 Queries | GZIP : Off ]

Торрент трекер RUTOR.IN, Не можете зайти на rutor.org? Какой новый адрес рутор? Какое зеркало рутор? Не работает rutor.org и зеркала? Тогда наш торрент специально для вас. Rutor.in неофициальное зеркало rutor. В случае если у Вас заблокирован rutor или вдруг Вы не можете на него зайти, то Вы без труда сможете скачать бесплатно и без рекламы последние новинки кино, игр, сериалов и прочего у нас, на Rutor.in. Не нужно использовать прокси, чтобы зайти на рутор, достаточно воспользоваться нашим ресурсом. Все новые фильмы, игры, сериалы, книги и музыка за 2013 и 2014 годы через торрент бесплатно. Скачивайте фильмы в хорошем качестве, игры для пк, xbox, playstation без регистрации. У нас вы найдете новые Зарубежные сериалы и Русские сериалы 2013, 2014, 2015 годов. Оставайтесь с нами, качайте любимые фильмы, игры, сериалы, книги и музыку.
cron