img image001 image001 image001 image001 image001 image001 image001 image001 image001 image001 image001 image001 image001 image001 image001

Planets Sun Sun Sun
Статистика раздачи
Автор: Nickolas3434 | Размер: 2.05 ГБ | Добавлен: 25 май 2014
Раздают: 436    Качают: 25
Скачать торрент
Скачать торрент
Описание торрента

СообщениеДобавлено: 25 май 2014 

Информация о фильме
Название: Планета бурь
Год выхода: 1961 (Pеставрация - Япония, 2002 год)
Жанр: фантастика
Режиссер: Павел Клушанцев
В ролях: Владимир Емельянов, Георгий Жженов, Геннадий Вернов, Юрий Саранцев, Кюнна Игнатова, Георгий Тейх

О фильме:
На планету Венера отправляется первая советская космическая экспедиция из трех кораблей. При подходе к Венере один из кораблей гибнет. Экипажи двух других кораблей, среди которых находятся иностранец и робот "железный Джон", благополучно совершают посадку. Две группы движутся по направлению друг к другу. При этом на орбите остается один корабль с космонавтом на борту. Прежде чем герои найдут друг друга и улетят на Землю, их застигнет извержение вулкана, они погрузятся на морское дно, встретят неведомых животных и достойно перенесут все психологические проблемы малых коллективов в экстремальных ситуациях.
Фильм о первой экспедиции землян на Венеру. По мотивам одноименной повести Александра Казанцева, первой части романа "Внуки Марса". Фильм был закуплен 28 странами, а Стэнли Кубрик и Джордж Лукас признавались, что без этого фильма не было бы ни "Космической одиссеи", ни "Звездных войн".

Страна: СССР
Студия: Ленфильм, Leningrad Popular Science Film Studio
Продолжительность: 01:18:32
Перевод: не требуется (2xРусский, Русский Лицензия)

» В США фильм был контрафактно перемонтирован студией Роджера Кормана с заменой ряда эпизодов и добавлением нескольких новых и выпущен в прокат под названием «Путешествие на доисторическую планету» (Voyage to the Prehistoric Planet, 1965). В титрах советские актёры, оставшиеся в фильме, были указаны под вымышленными англоязычными именами (Георгий Жжёнов как «Курт Боден», Геннадий Вернов как «Роберт Чантал» и т. д.). В новых эпизодах были заняты американские актёры Бэзил Рэтбон (эпизоды на станции связи «Луна 7») и Фэйт Домерг (эпизоды, заменившие все эпизоды с Кюнной Игнатовой).
» В 1968 году в США был выпущен ещё один перемонтированный вариант фильма под названием «Путешествие на планету доисторических женщин» («Voyage to the Planet of Prehistoric Women»). Из монтажа «Путешествия на доисторическую планету» были удалены ранее доснятые эпизоды и вставлены новые, которые вводили в сюжет племя венерианских доисторических амазонок. Режиссёром этой версии был Питер Богданович (под псевдонимом «Дерек Томас»).
Это первое нормальное издание этого фильма на DVD. Выпущено в Японии в 2002 году.

Качество оцифровки заметно выше, чем на Ленфильмовской поделке. После выхода российского "брака" (иначе не назовёшь), информация об этом издании практически исчезла из интернета. Данная версия диска распостранялась на Европейском рынке, японский язык отсутствует.

Файл
Кодек: XviD (AVI)
Качество: DVDRip
Видео: XviD, 720 x 540, ~1943 kbps
Звук: 2xРусский, Чешский, Французский, Итальянский: AC-3, 2 ch, 192 kbps / Русский: AC-3, 6 ch, 448 kbps (Лицензия)
Субтитры: нет

Семпл

Общее
Полное имя : F:Планета бурь (1962)Planeta.bur.1961.DVDRip.avi
Формат : AVI
Формат/Информация : Audio Video Interleave
Профиль формата : OpenDML
Размер файла : 2,05 Гбайт
Продолжительность : 1 ч. 21 м.
Общий поток : 3589 Кбит/сек
Программа кодирования : Lavf51.12.1

Видео
Идентификатор : 0
Формат : MPEG-4 Visual
Профиль формата : Simple@L1
Параметр BVOP формата : Нет
Параметр QPel формата : Нет
Параметр GMC формата : Без точки перехода
Параметр матрицы формата : Default (H.263)
Идентификатор кодека : FMP4
Продолжительность : 1 ч. 21 м.
Битрейт : 1943 Кбит/сек
Ширина : 720 пикселей
Высота : 540 пикселей
Соотношение сторон : 4:3
Частота кадров : 24,000 кадра/сек
Цветовое пространство : YUV
Субдискретизация насыщенности : 4:2:0
Битовая глубина : 8 бит
Тип развёртки : Прогрессивная
Метод сжатия : С потерями
Бит/(Пиксели*Кадры) : 0.208
Размер потока : 1,11 Гбайт (54%)
Библиотека кодирования : Lavc51.40.4

Аудио #1
Идентификатор : 1
Формат : AC-3
Формат/Информация : Audio Coding 3
Расширение режима : CM (complete main)
Параметр Endianness формата : Big
Идентификатор кодека : 2000
Продолжительность : 1 ч. 21 м.
Вид битрейта : Постоянный
Битрейт : 192 Кбит/сек
Каналы : 2 канала
Расположение каналов : Front: L R
Частота : 48,0 КГц
Битовая глубина : 16 бит
Метод сжатия : С потерями
Размер потока : 112 Мбайт (5%)
Выравнивание : Соединение по промежуткам
Продолжительность промежутка : 32 мс. (0,77 видеокадр)
Время предзагрузки промежутка : 32 мс.

Аудио #2
Идентификатор : 2
Формат : AC-3
Формат/Информация : Audio Coding 3
Расширение режима : CM (complete main)
Параметр Endianness формата : Big
Идентификатор кодека : 2000
Продолжительность : 1 ч. 21 м.
Вид битрейта : Постоянный
Битрейт : 192 Кбит/сек
Каналы : 2 канала
Расположение каналов : Front: L R
Частота : 48,0 КГц
Битовая глубина : 16 бит
Метод сжатия : С потерями
Размер потока : 112 Мбайт (5%)
Выравнивание : Соединение по промежуткам
Продолжительность промежутка : 32 мс. (0,77 видеокадр)
Время предзагрузки промежутка : 32 мс.

Аудио #3
Идентификатор : 3
Формат : AC-3
Формат/Информация : Audio Coding 3
Расширение режима : CM (complete main)
Параметр Endianness формата : Big
Идентификатор кодека : 2000
Продолжительность : 1 ч. 21 м.
Вид битрейта : Постоянный
Битрейт : 448 Кбит/сек
Каналы : 6 каналов
Расположение каналов : Front: L C R, Side: L R, LFE
Частота : 48,0 КГц
Битовая глубина : 16 бит
Метод сжатия : С потерями
Размер потока : 262 Мбайт (12%)
Выравнивание : Соединение по промежуткам
Продолжительность промежутка : 32 мс. (0,77 видеокадр)
Время предзагрузки промежутка : 32 мс.

Аудио #4
Идентификатор : 4
Формат : AC-3
Формат/Информация : Audio Coding 3
Расширение режима : CM (complete main)
Параметр Endianness формата : Big
Идентификатор кодека : 2000
Продолжительность : 1 ч. 21 м.
Вид битрейта : Постоянный
Битрейт : 192 Кбит/сек
Каналы : 2 канала
Расположение каналов : Front: L R
Частота : 48,0 КГц
Битовая глубина : 16 бит
Метод сжатия : С потерями
Размер потока : 112 Мбайт (5%)
Выравнивание : Соединение по промежуткам
Продолжительность промежутка : 32 мс. (0,77 видеокадр)
Время предзагрузки промежутка : 32 мс.

Аудио #5
Идентификатор : 5
Формат : AC-3
Формат/Информация : Audio Coding 3
Расширение режима : CM (complete main)
Параметр Endianness формата : Big
Идентификатор кодека : 2000
Продолжительность : 1 ч. 21 м.
Вид битрейта : Постоянный
Битрейт : 192 Кбит/сек
Каналы : 2 канала
Расположение каналов : Front: L R
Частота : 48,0 КГц
Битовая глубина : 16 бит
Метод сжатия : С потерями
Размер потока : 112 Мбайт (5%)
Выравнивание : Соединение по промежуткам
Продолжительность промежутка : 32 мс. (0,77 видеокадр)
Время предзагрузки промежутка : 32 мс.

Аудио #6
Идентификатор : 6
Формат : AC-3
Формат/Информация : Audio Coding 3
Расширение режима : CM (complete main)
Параметр Endianness формата : Big
Идентификатор кодека : 2000
Продолжительность : 1 ч. 21 м.
Вид битрейта : Постоянный
Битрейт : 192 Кбит/сек
Каналы : 2 канала
Расположение каналов : Front: L R
Частота : 48,0 КГц
Битовая глубина : 16 бит
Метод сжатия : С потерями
Размер потока : 112 Мбайт (5%)
Выравнивание : Соединение по промежуткам
Продолжительность промежутка : 32 мс. (0,77 видеокадр)
Время предзагрузки промежутка : 32 мс.

Аудио #7
Идентификатор : 7
Формат : AC-3
Формат/Информация : Audio Coding 3
Расширение режима : CM (complete main)
Параметр Endianness формата : Big
Идентификатор кодека : 2000
Продолжительность : 1 ч. 21 м.
Вид битрейта : Постоянный
Битрейт : 192 Кбит/сек
Каналы : 2 канала
Расположение каналов : Front: L R
Частота : 48,0 КГц
Битовая глубина : 16 бит
Метод сжатия : С потерями
Размер потока : 112 Мбайт (5%)
Выравнивание : Соединение по промежуткам
Продолжительность промежутка : 32 мс. (0,77 видеокадр)
Время предзагрузки промежутка : 32 мс.




   Похожие торренты   Торрент   Размер 
В этой теме нет новых непрочитанных сообщений. Планета бурь (1962) DVDRip

66 | 23

700.04 МБ

В этой теме нет новых непрочитанных сообщений. Планета бурь (1961) DVDRip

328 | 96

1.37 ГБ

В этой теме нет новых непрочитанных сообщений. Планета бурь (1961) DVDRip-AVC

194 | 80

1.65 ГБ

В этой теме нет новых непрочитанных сообщений. Планета бурь (1961) DVDRip-AVC от ExKinoRay

228 | 36

1.54 ГБ

В этой теме нет новых непрочитанных сообщений. Планета бурь (1961) DVD9

1 | 2

6.24 ГБ

В этой теме нет новых непрочитанных сообщений. Гусарская Баллада (1962) DVDRip | Реставрация

84 | 12

1.46 ГБ

В этой теме нет новых непрочитанных сообщений. Эта веселая планета (1973) DVD5 | Реставрация

36 | 6

4.09 ГБ




Вы не можете начинать темы
Вы не можете отвечать на сообщения
Вы не можете редактировать свои сообщения
Вы не можете удалять свои сообщения
Вы не можете добавлять вложения

Перейти:  
Для Мосгорсуда, Роскомнадзора и рекламодателей: mosgorsud-torrent[собачка]yandex.ru
 Вход
ppkBB3cker v.2 © 2008-2014 @ PPK
[ Time : 3.529s | 16 Queries | GZIP : Off ]

Торрент трекер RUTOR.IN, Не можете зайти на rutor.org? Какой новый адрес рутор? Какое зеркало рутор? Не работает rutor.org и зеркала? Тогда наш торрент специально для вас. Rutor.in неофициальное зеркало rutor. В случае если у Вас заблокирован rutor или вдруг Вы не можете на него зайти, то Вы без труда сможете скачать бесплатно и без рекламы последние новинки кино, игр, сериалов и прочего у нас, на Rutor.in. Не нужно использовать прокси, чтобы зайти на рутор, достаточно воспользоваться нашим ресурсом. Все новые фильмы, игры, сериалы, книги и музыка за 2013 и 2014 годы через торрент бесплатно. Скачивайте фильмы в хорошем качестве, игры для пк, xbox, playstation без регистрации. У нас вы найдете новые Зарубежные сериалы и Русские сериалы 2013, 2014, 2015 годов. Оставайтесь с нами, качайте любимые фильмы, игры, сериалы, книги и музыку.