img image001 image001 image001 image001 image001 image001 image001 image001 image001 image001 image001 image001 image001 image001 image001

Planets Sun Sun Sun
Статистика раздачи
Автор: Nickolas3434 | Размер: 3.19 ГБ | Добавлен: 25 май 2014
Раздают: 92    Качают: 7
Скачать торрент
Скачать торрент
Описание торрента

СообщениеДобавлено: 25 май 2014 

Информация о фильме
Название: Азирис нуна
Год выхода: 2006
Жанр: фантастика, приключения, семейный
Режиссер: Олег Компасов
В ролях: Роман Керимов, Вячеслав Гришечкин, Семен Фурман, Алёна Ивченко, Александр Филиппенко, Нонна Гришаева, Александр Лазарев мл., Спартак Мишулин, Александр Беляев, Максим Аверин

О фильме: Приключения во времени и пространстве двух братьев-подростков из семьи московских археологов: путешествие в будущее, спасение из космической тюрьмы, странствия по Древнему Египту, планеты, населенные сфинксами, битва с летающим роботом, побег от грозного фараона, поединок с восставшей из мертвых мумией…



Выпущено: Кинокомпания «КВИД»
Продолжительность: 01:38:02
Перевод: Оригинал (лицензия)

Файл
Кодек: x264
Качество: BDRip (источник: Blu-ray Disc)
Видео: 1280x720 (16:9), 23.976 fps, 4210 kbps
Аудио: AC-3, 6 ch, 448 kbps
Субтитры: Русские, Английские
Скачать: сэмпл

Скриншоты

Общее
Уникальный идентификатор : 188516214448675408681681509039013010196 (0x8DD2E6F942D9403AA3D21EFE509A9B14)
Полное имя : Aziris.nuna.2006.BDRip.720p.Rus.mkv
Формат : Matroska
Версия формата : Version 2
Размер файла : 3,19 Гбайт
Продолжительность : 1 ч. 38 м.
Общий поток : 4659 Кбит/сек
Название фильма : Азирис Нуна (2006)
Дата кодирования : UTC 2014-05-22 18:06:26
Программа кодирования : mkvmerge v5.8.0 ('No Sleep / Pillow') built on Sep 2 2012 15:37:04
Библиотека кодирования : libebml v1.2.3 + libmatroska v1.3.0

Видео
Идентификатор : 1
Формат : AVC
Формат/Информация : Advanced Video Codec
Профиль формата : High@L4.1
Параметр CABAC формата : Да
Параметр ReFrames формата : 9 кадров
Идентификатор кодека : V_MPEG4/ISO/AVC
Продолжительность : 1 ч. 38 м.
Битрейт : 4209 Кбит/сек
Ширина : 1280 пикселей
Высота : 720 пикселей
Соотношение сторон : 16:9
Режим частоты кадров : Постоянный
Частота кадров : 23,976 кадра/сек
Цветовое пространство : YUV
Субдискретизация насыщенности : 4:2:0
Битовая глубина : 8 бит
Тип развёртки : Прогрессивная
Бит/(Пиксели*Кадры) : 0.190
Размер потока : 2,82 Гбайт (88%)
Заголовок : Release by AlexKa
Библиотека кодирования : x264 core 142 r2431 ac76440
Настройки программы : cabac=1 / ref=9 / deblock=1:-3:-3 / analyse=0x3:0x133 / me=umh / subme=11 / psy=1 / psy_rd=1.00:0.00 / mixed_ref=1 / me_range=32 / chroma_me=1 / trellis=2 / 8x8dct=1 / cqm=0 / deadzone=21,11 / fast_pskip=0 / chroma_qp_offset=-2 / threads=12 / lookahead_threads=2 / sliced_threads=0 / nr=0 / decimate=0 / interlaced=0 / bluray_compat=0 / constrained_intra=0 / bframes=9 / b_pyramid=2 / b_adapt=2 / b_bias=0 / direct=3 / weightb=1 / open_gop=0 / weightp=2 / keyint=240 / keyint_min=23 / scenecut=40 / intra_refresh=0 / rc=2pass / mbtree=0 / bitrate=4209 / ratetol=1.0 / qcomp=0.60 / qpmin=0 / qpmax=69 / qpstep=4 / cplxblur=20.0 / qblur=0.5 / ip_ratio=1.40 / pb_ratio=1.30 / aq=1:0.70
Язык : Russian

Аудио
Идентификатор : 2
Формат : AC-3
Формат/Информация : Audio Coding 3
Расширение режима : CM (complete main)
Параметр Endianness формата : Big
Идентификатор кодека : A_AC3
Продолжительность : 1 ч. 38 м.
Вид битрейта : Постоянный
Битрейт : 448 Кбит/сек
Каналы : 6 каналов
Расположение каналов : Front: L C R, Side: L R, LFE
Частота : 48,0 КГц
Битовая глубина : 16 бит
Метод сжатия : С потерями
Размер потока : 314 Мбайт (10%)
Заголовок : Rus
Язык : Russian

Текст #1
Идентификатор : 3
Формат : UTF-8
Идентификатор кодека : S_TEXT/UTF8
Идентификатор кодека/Информация : UTF-8 Plain Text
Заголовок : Rus
Язык : Russian

Текст #2
Идентификатор : 4
Формат : UTF-8
Идентификатор кодека : S_TEXT/UTF8
Идентификатор кодека/Информация : UTF-8 Plain Text
Заголовок : Eng
Язык : English

Меню
00:00:00.000 : :Chapter 01
00:03:49.771 : :Chapter 02
00:11:15.466 : :Chapter 03
00:17:48.692 : :Chapter 04
00:24:10.198 : :Chapter 05
00:29:39.444 : :Chapter 06
00:38:36.522 : :Chapter 07
00:44:11.982 : :Chapter 08
00:51:31.671 : :Chapter 09
01:00:17.113 : :Chapter 10
01:11:11.767 : :Chapter 11
01:19:00.819 : :Chapter 12
01:27:03.843 : :Chapter 13
01:33:51.542 : :Chapter 14
x264 [info]: frame I:1128 Avg QP:14.92 size:125283
x264 [info]: frame P:28799 Avg QP:17.90 size: 44298
x264 [info]: frame B:111101 Avg QP:20.11 size: 15098
x264 [info]: consecutive B-frames: 1.7% 1.4% 5.0% 19.2% 16.6% 46.6% 5.8% 1.4% 1.7% 0.6%



   Похожие торренты   Торрент   Размер 
В этой теме нет новых непрочитанных сообщений. Азирис Нуна (2006) BDRip 720p от NOLIMITS-TEAM

2 | 2

2.22 ГБ

В этой теме нет новых непрочитанных сообщений. Азирис Нуна (2006) BDRip от HQCLUB

82 | 8

1.45 ГБ

В этой теме нет новых непрочитанных сообщений. Меченосец (2006) BDRip 720p

4 | 4

5.29 ГБ

В этой теме нет новых непрочитанных сообщений. Телевизор / The TV Set (2006) BDRip 720p

0 | 2

4.6 ГБ

В этой теме нет новых непрочитанных сообщений. 300 спартанцев / 300 (2006) BDRip 720p | D, P2, P, A

531 | 31

6.36 ГБ

В этой теме нет новых непрочитанных сообщений. Апокалипсис / Apocalypto (2006) BDRip 720p | P, P2, A

108 | 25

13.12 ГБ

В этой теме нет новых непрочитанных сообщений. Облако / Die Wolke (2006) BDRip 720p | P2

73 | 39

3.43 ГБ




Вы не можете начинать темы
Вы не можете отвечать на сообщения
Вы не можете редактировать свои сообщения
Вы не можете удалять свои сообщения
Вы не можете добавлять вложения

Перейти:  
Для Мосгорсуда, Роскомнадзора и рекламодателей: mosgorsud-torrent[собачка]yandex.ru
 Вход
ppkBB3cker v.2 © 2008-2014 @ PPK
[ Time : 0.072s | 15 Queries | GZIP : Off ]

Торрент трекер RUTOR.IN, Не можете зайти на rutor.org? Какой новый адрес рутор? Какое зеркало рутор? Не работает rutor.org и зеркала? Тогда наш торрент специально для вас. Rutor.in неофициальное зеркало rutor. В случае если у Вас заблокирован rutor или вдруг Вы не можете на него зайти, то Вы без труда сможете скачать бесплатно и без рекламы последние новинки кино, игр, сериалов и прочего у нас, на Rutor.in. Не нужно использовать прокси, чтобы зайти на рутор, достаточно воспользоваться нашим ресурсом. Все новые фильмы, игры, сериалы, книги и музыка за 2013 и 2014 годы через торрент бесплатно. Скачивайте фильмы в хорошем качестве, игры для пк, xbox, playstation без регистрации. У нас вы найдете новые Зарубежные сериалы и Русские сериалы 2013, 2014, 2015 годов. Оставайтесь с нами, качайте любимые фильмы, игры, сериалы, книги и музыку.