img image001 image001 image001 image001 image001 image001 image001 image001 image001 image001 image001 image001 image001 image001 image001

Planets Sun Sun Sun
Статистика раздачи
Автор: Nickolas3434 | Размер: 743.98 МБ | Добавлен: 25 май 2014
Раздают: 11    Качают: 14
Скачать торрент
Скачать торрент
Описание торрента

СообщениеДобавлено: 25 май 2014 

Страна: Россия
Производство: A.K.T., Кинопрограмма XX век

Жанр: криминал
Год выпуска: 1993
Продолжительность: 01:07:56

Перевод: не требуется
Оригинальная аудиодорожка: русский
Cубтитры: нет

Режиссер: Тимофей Спивак

В ролях:
Александр Михайлов, Юлия Силаева, Тимофей Спивак ,Игорь Янковский, Александр Белявский, Мария Веракса, Чунг Кьень Нгуйен, Мэн Хунг Дао, Гоша Куценко...

Описание:
Россия начала 90-х годов. Свобода слова и свобода дела. Множество криминальных группировок пытаются отхватить свой кусок пирога гибнущей империи. Жажда власти и денег приводит ко все новым разборкам и убийствам. Очередная жертва обнаружена оперативниками в собственной квартире. Алина — единственная свидетельница, найденная спящей на месте преступления. Дело поручено опытному следователю, который даже не подозревает, какой преступный улей ему придется разворошить. Девушка, очарованная постоянно хмурым, но очень обаятельным детективом, решается помочь. Но излишняя разговорчивость грозит свидетельнице смертью. По ее следам уже идет профессиональный киллер…





Исходник: DVD5 R5
Тип релиза: DVDRip
Контейнер: AVI

Видео: 688x512 (4:3), 25 fps, XviD ~ 1329 kbps avg, 0.151 bit/pixel
Аудио: 48 kHz, Dolby Digital AC3 2.0, 192 kbps

Раздача от:
Общее
Полное имя : Vopreki.vsemu.1993.DVDRip_[New-team]_by_AVP_Studio.avi
Формат : AVI
Формат/Информация : Audio Video Interleave
Размер файла : 744 Мбайт
Продолжительность : 1 ч. 7 м.
Общий поток : 1531 Кбит/сек
Программа кодирования : VirtualDubModRus 1.5.10.2 (build 2542/release)
Библиотека кодирования : VirtualDubMod build 2542/release

Видео
Идентификатор : 0
Формат : MPEG-4 Visual
Профиль формата : Advanced Simple@L5
Параметр BVOP формата : 1
Параметр QPel формата : Нет
Параметр GMC формата : Без точки перехода
Параметр матрицы формата : Выборочная
Идентификатор кодека : XVID
Идентификатор кодека/Подсказка : XviD
Продолжительность : 1 ч. 7 м.
Битрейт : 1329 Кбит/сек
Ширина : 688 пикселей
Высота : 512 пикселей
Соотношение сторон : 4:3
Частота кадров : 25,000 кадров/сек
Цветовое пространство : YUV
Субдискретизация насыщенности : 4:2:0
Битовая глубина : 8 бит
Тип развёртки : Прогрессивная
Метод сжатия : С потерями
Бит/(Пиксели*Кадры) : 0.151
Размер потока : 646 Мбайт (87%)
Библиотека кодирования : XviD 73

Аудио
Идентификатор : 1
Формат : AC-3
Формат/Информация : Audio Coding 3
Расширение режима : CM (complete main)
Параметр Endianness формата : Big
Идентификатор кодека : 2000
Продолжительность : 1 ч. 7 м.
Вид битрейта : Постоянный
Битрейт : 192 Кбит/сек
Каналы : 2 канала
Расположение каналов : Front: L R
Частота : 48,0 КГц
Битовая глубина : 16 бит
Метод сжатия : С потерями
Размер потока : 93,3 Мбайт (13%)
Выравнивание : Разделение по промежуткам
Продолжительность промежутка : 40 мс. (1,00 видеокадр)
Время предзагрузки промежутка : 500 мс





   Похожие торренты   Торрент   Размер 
В этой теме нет новых непрочитанных сообщений. Вопреки всему (1993) DVDRip-AVC от New-Team

10 | 3

743.89 МБ

В этой теме нет новых непрочитанных сообщений. Вопреки всему [01-04 из 04] (2014) SATRip

49 | 14

2.1 ГБ

В этой теме нет новых непрочитанных сообщений. Вопреки всему [01-02 из 02] (2014) HDTVRip от Files-x

631 | 207

2.73 ГБ

В этой теме нет новых непрочитанных сообщений. Вопреки всему [01-02 из 02] (2014) HDTVRip 720p от MediaClub

74 | 70

7.39 ГБ

В этой теме нет новых непрочитанных сообщений. Учительница научит тебя всему всему / Asa made Jugyou Chu! (2012) BDRip | L2

89 | 12

405.07 МБ

В этой теме нет новых непрочитанных сообщений. По секрету всему свету (1976) SATRip от New-Team

25 | 5

1.45 ГБ

В этой теме нет новых непрочитанных сообщений. По секрету всему свету (1976) SATRip-AVC от New-Team

17 | 8

1.45 ГБ




Вы не можете начинать темы
Вы не можете отвечать на сообщения
Вы не можете редактировать свои сообщения
Вы не можете удалять свои сообщения
Вы не можете добавлять вложения

Перейти:  
Для Мосгорсуда, Роскомнадзора и рекламодателей: mosgorsud-torrent[собачка]yandex.ru
 Вход
ppkBB3cker v.2 © 2008-2014 @ PPK
[ Time : 0.024s | 15 Queries | GZIP : Off ]

Торрент трекер RUTOR.IN, Не можете зайти на rutor.org? Какой новый адрес рутор? Какое зеркало рутор? Не работает rutor.org и зеркала? Тогда наш торрент специально для вас. Rutor.in неофициальное зеркало rutor. В случае если у Вас заблокирован rutor или вдруг Вы не можете на него зайти, то Вы без труда сможете скачать бесплатно и без рекламы последние новинки кино, игр, сериалов и прочего у нас, на Rutor.in. Не нужно использовать прокси, чтобы зайти на рутор, достаточно воспользоваться нашим ресурсом. Все новые фильмы, игры, сериалы, книги и музыка за 2013 и 2014 годы через торрент бесплатно. Скачивайте фильмы в хорошем качестве, игры для пк, xbox, playstation без регистрации. У нас вы найдете новые Зарубежные сериалы и Русские сериалы 2013, 2014, 2015 годов. Оставайтесь с нами, качайте любимые фильмы, игры, сериалы, книги и музыку.