img image001 image001 image001 image001 image001 image001 image001 image001 image001 image001 image001 image001 image001 image001 image001

Planets Sun Sun Sun
Статистика раздачи
Автор: Nickolas3434 | Размер: 743.89 МБ | Добавлен: 25 май 2014
Раздают: 10    Качают: 3
Скачать торрент
Скачать торрент
Описание торрента

СообщениеДобавлено: 25 май 2014 

Страна: Россия
Производство: A.K.T., Кинопрограмма XX век

Жанр: криминал
Год выпуска: 1993
Продолжительность: 01:07:56

Перевод: не требуется
Оригинальная аудиодорожка: русский
Cубтитры: нет

Режиссер: Тимофей Спивак

В ролях:
Александр Михайлов, Юлия Силаева, Тимофей Спивак ,Игорь Янковский, Александр Белявский, Мария Веракса, Чунг Кьень Нгуйен, Мэн Хунг Дао, Гоша Куценко...

Описание:
Россия начала 90-х годов. Свобода слова и свобода дела. Множество криминальных группировок пытаются отхватить свой кусок пирога гибнущей империи. Жажда власти и денег приводит ко все новым разборкам и убийствам. Очередная жертва обнаружена оперативниками в собственной квартире. Алина — единственная свидетельница, найденная спящей на месте преступления. Дело поручено опытному следователю, который даже не подозревает, какой преступный улей ему придется разворошить. Девушка, очарованная постоянно хмурым, но очень обаятельным детективом, решается помочь. Но излишняя разговорчивость грозит свидетельнице смертью. По ее следам уже идет профессиональный киллер…





Исходник: DVD5 R5
Тип релиза: DVDRip-AVC
Контейнер: MKV

Видео: 696->744x568 (4:3), 25 fps, H264 ~ 1337 kbps avg, 0.135 bit/pixel
Аудио: 48 kHz, Dolby Digital AC3 2.0, 192 kbps

Раздача от:
Общее
Полное имя : Vopreki.vsemu.1993.DVDRip-AVC_[New-team]_by_AVP_Studio.mkv
Формат : Matroska
Версия формата : Version 2
Размер файла : 744 Мбайт
Продолжительность : 1 ч. 7 м.
Общий поток : 1531 Кбит/сек
Дата кодирования : UTC 2014-05-24 02:32:07
Программа кодирования : mkvmerge v6.1.0 ('Old Devil') built on Mar 4 2013 09:10:42
Библиотека кодирования : libebml v1.3.0 + libmatroska v1.4.0

Видео
Идентификатор : 1
Формат : AVC
Формат/Информация : Advanced Video Codec
Профиль формата : High@L4.1
Параметр CABAC формата : Да
Параметр ReFrames формата : 8 кадров
Идентификатор кодека : V_MPEG4/ISO/AVC
Продолжительность : 1 ч. 7 м.
Битрейт : 1337 Кбит/сек
Ширина : 696 пикселей
Высота : 568 пикселей
Соотношение сторон : 4:3
Режим частоты кадров : Постоянный
Частота кадров : 25,000 кадров/сек
Цветовое пространство : YUV
Субдискретизация насыщенности : 4:2:0
Битовая глубина : 8 бит
Тип развёртки : Прогрессивная
Бит/(Пиксели*Кадры) : 0.135
Размер потока : 636 Мбайт (85%)
Библиотека кодирования : x264 core 138 r2356 a1d3d17
Настройки программы : cabac=1 / ref=8 / deblock=1:-2:-1 / analyse=0x3:0x113 / me=umh / subme=10 / psy=1 / psy_rd=1.00:0.05 / mixed_ref=1 / me_range=32 / chroma_me=1 / trellis=2 / 8x8dct=1 / cqm=0 / deadzone=21,11 / fast_pskip=0 / chroma_qp_offset=-3 / threads=3 / lookahead_threads=1 / sliced_threads=0 / nr=0 / decimate=0 / interlaced=0 / bluray_compat=0 / constrained_intra=0 / bframes=8 / b_pyramid=2 / b_adapt=2 / b_bias=0 / direct=3 / weightb=1 / open_gop=0 / weightp=2 / keyint=250 / keyint_min=25 / scenecut=40 / intra_refresh=0 / rc=2pass / mbtree=0 / bitrate=1337 / ratetol=1.0 / qcomp=0.60 / qpmin=0 / qpmax=69 / qpstep=4 / cplxblur=20.0 / qblur=0.5 / ip_ratio=1.40 / pb_ratio=1.30 / aq=1:1.00
Default : Да
Forced : Нет

Аудио
Идентификатор : 2
Формат : AC-3
Формат/Информация : Audio Coding 3
Расширение режима : CM (complete main)
Параметр Endianness формата : Big
Идентификатор кодека : A_AC3
Продолжительность : 1 ч. 7 м.
Вид битрейта : Постоянный
Битрейт : 192 Кбит/сек
Каналы : 2 канала
Расположение каналов : Front: L R
Частота : 48,0 КГц
Битовая глубина : 16 бит
Метод сжатия : С потерями
Размер потока : 93,3 Мбайт (13%)
Default : Да
Forced : Нет





   Похожие торренты   Торрент   Размер 
В этой теме нет новых непрочитанных сообщений. Вопреки всему (1993) DVDRip от New-Team

11 | 14

743.98 МБ

В этой теме нет новых непрочитанных сообщений. Вопреки всему [01-04 из 04] (2014) SATRip

49 | 14

2.1 ГБ

В этой теме нет новых непрочитанных сообщений. Вопреки всему [01-02 из 02] (2014) HDTVRip от Files-x

631 | 207

2.73 ГБ

В этой теме нет новых непрочитанных сообщений. Вопреки всему [01-02 из 02] (2014) HDTVRip 720p от MediaClub

74 | 70

7.39 ГБ

В этой теме нет новых непрочитанных сообщений. Учительница научит тебя всему всему / Asa made Jugyou Chu! (2012) BDRip | L2

89 | 12

405.07 МБ

В этой теме нет новых непрочитанных сообщений. По секрету всему свету (1976) SATRip-AVC от New-Team

15 | 8

1.45 ГБ

В этой теме нет новых непрочитанных сообщений. По секрету всему свету (1976) SATRip от New-Team

19 | 4

1.45 ГБ




Вы не можете начинать темы
Вы не можете отвечать на сообщения
Вы не можете редактировать свои сообщения
Вы не можете удалять свои сообщения
Вы не можете добавлять вложения

Перейти:  
Для Мосгорсуда, Роскомнадзора и рекламодателей: mosgorsud-torrent[собачка]yandex.ru
 Вход
ppkBB3cker v.2 © 2008-2014 @ PPK
[ Time : 0.051s | 15 Queries | GZIP : On ]

Торрент трекер RUTOR.IN, Не можете зайти на rutor.org? Какой новый адрес рутор? Какое зеркало рутор? Не работает rutor.org и зеркала? Тогда наш торрент специально для вас. Rutor.in неофициальное зеркало rutor. В случае если у Вас заблокирован rutor или вдруг Вы не можете на него зайти, то Вы без труда сможете скачать бесплатно и без рекламы последние новинки кино, игр, сериалов и прочего у нас, на Rutor.in. Не нужно использовать прокси, чтобы зайти на рутор, достаточно воспользоваться нашим ресурсом. Все новые фильмы, игры, сериалы, книги и музыка за 2013 и 2014 годы через торрент бесплатно. Скачивайте фильмы в хорошем качестве, игры для пк, xbox, playstation без регистрации. У нас вы найдете новые Зарубежные сериалы и Русские сериалы 2013, 2014, 2015 годов. Оставайтесь с нами, качайте любимые фильмы, игры, сериалы, книги и музыку.