img image001 image001 image001 image001 image001 image001 image001 image001 image001 image001 image001 image001 image001 image001 image001

Planets Sun Sun Sun
Статистика раздачи
Автор: Nickolas3434 | Размер: 701.25 МБ | Добавлен: 31 май 2014
Раздают: 473    Качают: 16
Скачать торрент
Скачать торрент
Описание торрента

СообщениеДобавлено: 31 май 2014 

Информация о фильме
Название: Скорый «Москва-Россия»
Год выхода: 2014
Жанр: Комедия, приключения
Режиссёр: Игорь Волошин
В ролях: Сергей Светлаков, Маргарита Левиева, Павел Деревянко, Майкл Мэдсен, Ингеборга Дапкунайте, Спартак Кондауров, Максим Голополосов, Иван Ургант, Виктор Проскурин, Ольга Симонова

О фильме:
Это история про парня, который душу готов продать, лишь бы набрать миллион просмотров для своего видео на YouTube. На пути к своей цели он оказывается в скором поезде «Москва - Владивосток», где сталкивается с американской актрисой, страдающей аэрофобией. В пути незнакомцев ожидают такие приключения, что они отстают от поезда, который пытаются догнать, продвигаясь по нашей непредсказуемой и сказочной России-матушке… Ведь каждому из них нужно оказаться во Владивостоке ровно через 7 дней - по причинам, которые они тщательно скрывают друг от друга.



Страна: Россия
Студия: Bulldozerfilms
Продолжительность: 01:24:34
Перевод: Не требуется

Файл
Кодек: XviD
Качество: DVDRip
Видео: XviD, 640x272 (2.35:1), 25 кадр/с, 1022 Кбит/с
Звук: Русский, MP3, 48000 Гц, 128 Кбит/с, 2 канала (Стерео)
Субтитры: Нет



Автор рипа - ivandubskoj

General
Complete name : Skoryy.Moskva.Rossiya.2014.DVDRip.700MB.avi
Format : AVI
Format/Info : Audio Video Interleave
File size : 701 MiB
Duration : 1h 24mn
Overall bit rate : 1 159 Kbps
Writing application : VirtualDubMod 1.5.10.3 | www.virtualdub-fr.org || (build 2550/release)
Writing library : VirtualDubMod build 2550/release

Video
ID : 0
Format : MPEG-4 Visual
Format profile : Advanced Simple@L5
Format settings, BVOP : 1
Format settings, QPel : No
Format settings, GMC : No warppoints
Format settings, Matrix : Default (MPEG)
Codec ID : XVID
Codec ID/Hint : XviD
Duration : 1h 24mn
Bit rate : 1 022 Kbps
Width : 640 pixels
Height : 272 pixels
Display aspect ratio : 2.35:1
Frame rate : 25.000 fps
Color space : YUV
Chroma subsampling : 4:2:0
Bit depth : 8 bits
Scan type : Progressive
Compression mode : Lossy
Bits/(Pixel*Frame) : 0.235
Stream size : 618 MiB (88%)
Writing library : XviD 73

Audio
ID : 1
Format : MPEG Audio
Format version : Version 1
Format profile : Layer 3
Codec ID : 55
Codec ID/Hint : MP3
Duration : 1h 24mn
Bit rate mode : Constant
Bit rate : 128 Kbps
Channel(s) : 2 channels
Sampling rate : 48.0 KHz
Compression mode : Lossy
Stream size : 77.4 MiB (11%)
Alignment : Aligned on interleaves
Interleave, duration : 40 ms (1.00 video frame)
Interleave, preload duration : 504 ms
Writing library : LAME3.99r
Encoding settings : -m s -V 4 -q 2 -lowpass 17 -b 128



   Похожие торренты   Торрент   Размер 
В этой теме нет новых непрочитанных сообщений. Скорый «Москва-Россия» (2014) BDRip от ivandubskoj

1233 | 107

1.46 ГБ

В этой теме нет новых непрочитанных сообщений. Скорый «Москва-Россия» (2014) DVDRip от MediaClub | КПК

159 | 13

382.07 МБ

В этой теме нет новых непрочитанных сообщений. Скорый Москва-Россия (2014) DVDRip от Freerutor | Лицензия

6044 | 77

1.37 ГБ

В этой теме нет новых непрочитанных сообщений. Скорый «Москва-Россия» (2014) TS

4889 | 167

1.37 ГБ

В этой теме нет новых непрочитанных сообщений. Скорый «Москва-Россия» (2014) TS

437 | 13

693.77 МБ

В этой теме нет новых непрочитанных сообщений. Скорый «Москва-Россия» (2014) HDRip-AVC | Лицензия

51 | 64

698.98 МБ

В этой теме нет новых непрочитанных сообщений. Скорый Москва-Россия (2014) HDRip | Лицензия

2546 | 136

1.37 ГБ




Вы не можете начинать темы
Вы не можете отвечать на сообщения
Вы не можете редактировать свои сообщения
Вы не можете удалять свои сообщения
Вы не можете добавлять вложения

Перейти:  
Для Мосгорсуда, Роскомнадзора и рекламодателей: mosgorsud-torrent[собачка]yandex.ru
 Вход
ppkBB3cker v.2 © 2008-2014 @ PPK
[ Time : 0.106s | 15 Queries | GZIP : Off ]

Торрент трекер RUTOR.IN, Не можете зайти на rutor.org? Какой новый адрес рутор? Какое зеркало рутор? Не работает rutor.org и зеркала? Тогда наш торрент специально для вас. Rutor.in неофициальное зеркало rutor. В случае если у Вас заблокирован rutor или вдруг Вы не можете на него зайти, то Вы без труда сможете скачать бесплатно и без рекламы последние новинки кино, игр, сериалов и прочего у нас, на Rutor.in. Не нужно использовать прокси, чтобы зайти на рутор, достаточно воспользоваться нашим ресурсом. Все новые фильмы, игры, сериалы, книги и музыка за 2013 и 2014 годы через торрент бесплатно. Скачивайте фильмы в хорошем качестве, игры для пк, xbox, playstation без регистрации. У нас вы найдете новые Зарубежные сериалы и Русские сериалы 2013, 2014, 2015 годов. Оставайтесь с нами, качайте любимые фильмы, игры, сериалы, книги и музыку.