img image001 image001 image001 image001 image001 image001 image001 image001 image001 image001 image001 image001 image001 image001 image001

Planets Sun Sun Sun
Статистика раздачи
Автор: Nickolas3434 | Размер: 1.46 ГБ | Добавлен: 02 июн 2014
Раздают: 8    Качают: 58
Скачать торрент
Скачать торрент
Описание торрента

СообщениеДобавлено: 02 июн 2014 

Страна: Россия
Производство: Ленфильм

Жанр: драма, история
Год выпуска: 1996
Продолжительность: 01:44:01 (00:52:00 + 00:52:01)

Перевод: не требуется
Оригинальная аудиодорожка: русский
Cубтитры: нет

Режиссер: Виталий Мельников

В ролях:
Алексей Зуев, Виктор Степанов, Екатерина Кулакова, Наталья Егорова, Роман Громадский, Станислав Любшин, Владимир Меньшов, Фёдор Стуков, Анатолий Петров, Михаил Кононов...

Описание:
Алексей Петрович показан человеком, который стыдится своего венценосного отца и лишь хочет жить обычной жизнью. При этом он, согласно создателям фильма, был тихим и богобоязненным человеком, который не желал смерти Петру I и смены власти в России. Но в результате дворцовых интриг он был оклеветан, за что был замучен своим отцом, а его товарищи были казнены…





Исходник: DVD5 R5
Тип релиза: DVDRip
Контейнер: AVI

Видео: 704x416 (1,692:1), 25 fps, XviD ~ 1803 kbps avg, 0.246 bit/pixel
Аудио: 48 kHz, Dolby Digital AC3 2.0, 192 kbps

Раздача от:
Общее
Полное имя : Carevich.Aleksey.1996.DVDRip_[New-team]_by_AVP_Studio\01.avi
Формат : AVI
Формат/Информация : Audio Video Interleave
Размер файла : 746 Мбайт
Продолжительность : 52 м.
Общий поток : 2004 Кбит/сек
Программа кодирования : VirtualDubModRus 1.5.10.2 (build 2542/release)
Библиотека кодирования : VirtualDubMod build 2542/release

Видео
Идентификатор : 0
Формат : MPEG-4 Visual
Профиль формата : Advanced Simple@L5
Параметр BVOP формата : 1
Параметр QPel формата : Нет
Параметр GMC формата : Без точки перехода
Параметр матрицы формата : Выборочная
Идентификатор кодека : XVID
Идентификатор кодека/Подсказка : XviD
Продолжительность : 52 м.
Битрейт : 1803 Кбит/сек
Ширина : 704 пикселя
Высота : 416 пикселей
Соотношение сторон : 1,692
Частота кадров : 25,000 кадров/сек
Цветовое пространство : YUV
Субдискретизация насыщенности : 4:2:0
Битовая глубина : 8 бит
Тип развёртки : Прогрессивная
Метод сжатия : С потерями
Бит/(Пиксели*Кадры) : 0.246
Размер потока : 671 Мбайт (90%)
Библиотека кодирования : XviD 73

Аудио
Идентификатор : 1
Формат : AC-3
Формат/Информация : Audio Coding 3
Расширение режима : CM (complete main)
Параметр Endianness формата : Big
Идентификатор кодека : 2000
Продолжительность : 52 м.
Вид битрейта : Постоянный
Битрейт : 192 Кбит/сек
Каналы : 2 канала
Расположение каналов : Front: L R
Частота : 48,0 КГц
Битовая глубина : 16 бит
Метод сжатия : С потерями
Размер потока : 71,4 Мбайт (10%)
Выравнивание : Разделение по промежуткам
Продолжительность промежутка : 40 мс. (1,00 видеокадр)
Время предзагрузки промежутка : 500 мс



1997 — Кинофестиваль «Виват кино России!» в Санкт-Петербурге (Приз прессы и Приз за лучшую режиссуру — Виталий Мельников.
1997 — Кинофестиваль «Окно в Европу» в Выборге (Диплом за лучшую актёрскую работу — Алексей Зуев, Главный приз за лучший фильм, Приз «Поддержка в прокате» — Виталий Мельников)
1997 — Кинофестиваль русских фильмов в Онфлере (Гран-при — Виталий Мельников)
1998 — Кинофестиваль «Литература и кино» в Гатчине (Спец. приз жюри — Виталий Мельников)
1999 — Премия деловых кругов «Кумир» (В номинации «Надежда года» — Алексей Зуев)
1998 — 3 премии «Ника»: Лучшая работа художника по костюмам, Лучший звук, Лучшая работа художника-постановщика; номинация: Лучшая мужская роль (Алексей Зуев)



   Похожие торренты   Торрент   Размер 
В этой теме нет новых непрочитанных сообщений. Царевич Алексей (1996) DVDRip от New-Team

5 | 3

745.38 МБ

В этой теме нет новых непрочитанных сообщений. Царевич Алексей (1996) DVDRip-AVC от New-Team

21 | 3

1.45 ГБ

В этой теме нет новых непрочитанных сообщений. Царевич Алексей (1997) DVDRip от ExKinoRay

4 | 9

1.47 ГБ

В этой теме нет новых непрочитанных сообщений. Алексей Рыбников - Юнона и Авось (1980) (1996) APE

9 | 4

342.9 МБ

В этой теме нет новых непрочитанных сообщений. Алексей Рыбников - Юнона и Авось (1996) МР3 от AudioZona-X

73 | 4

159.62 МБ

В этой теме нет новых непрочитанных сообщений. Иван Царевич и Серый Волк (2011) 3D BDRip 1080p от NOLIMITS-TEAM | 3D Video

38 | 2

4.37 ГБ

В этой теме нет новых непрочитанных сообщений. Алексей Чернышёв и Алексей Булгаков - Плач Оборванной Струны (2015) MP3

158 | 7

117.98 МБ




Вы не можете начинать темы
Вы не можете отвечать на сообщения
Вы не можете редактировать свои сообщения
Вы не можете удалять свои сообщения
Вы не можете добавлять вложения

Перейти:  
Для Мосгорсуда, Роскомнадзора и рекламодателей: mosgorsud-torrent[собачка]yandex.ru
 Вход
ppkBB3cker v.2 © 2008-2014 @ PPK
[ Time : 0.027s | 15 Queries | GZIP : Off ]

Торрент трекер RUTOR.IN, Не можете зайти на rutor.org? Какой новый адрес рутор? Какое зеркало рутор? Не работает rutor.org и зеркала? Тогда наш торрент специально для вас. Rutor.in неофициальное зеркало rutor. В случае если у Вас заблокирован rutor или вдруг Вы не можете на него зайти, то Вы без труда сможете скачать бесплатно и без рекламы последние новинки кино, игр, сериалов и прочего у нас, на Rutor.in. Не нужно использовать прокси, чтобы зайти на рутор, достаточно воспользоваться нашим ресурсом. Все новые фильмы, игры, сериалы, книги и музыка за 2013 и 2014 годы через торрент бесплатно. Скачивайте фильмы в хорошем качестве, игры для пк, xbox, playstation без регистрации. У нас вы найдете новые Зарубежные сериалы и Русские сериалы 2013, 2014, 2015 годов. Оставайтесь с нами, качайте любимые фильмы, игры, сериалы, книги и музыку.