img image001 image001 image001 image001 image001 image001 image001 image001 image001 image001 image001 image001 image001 image001 image001

Planets Sun Sun Sun
Статистика раздачи
Автор: Nickolas3434 | Размер: 1.46 ГБ | Добавлен: 11 июн 2014
Раздают: 1105    Качают: 41
Скачать торрент
Скачать торрент
Описание торрента

СообщениеДобавлено: 11 июн 2014 

«Там кто-то есть...»




Страна: США, Украина / Taranova Producfions LLC

Жанр: ужасы
Год выпуска: 2013
Продолжительность: 01:13:11

Перевод: Не требуется
Cубтитры: нет
Оригинальная аудиодорожка: русский

Режиссер: Александр Алешечкин, Вячеслав Алешечкин

В ролях: Сергей Романюк, Алена Лавренюк, Илья Рудаков, Богдан Юсипчук, Зоряна Марченко, Константин Войтенко, Филипп Козлов, Мила Сивацкая, Игорь Савинский, Юрий Фреган

Описание: Советский Союз, конец 70-х. На лекции общества «Знание» в Киеве пожилой профессор рассказывает о странных существах, описанных еще Марко Поло, которые обитали также и на территории Древней Руси…
Советские Карпаты. Небольшой хуторок, затерянный в лесах возле горного озера Синевир. Утром, тайком от родителей из дома выбираются на рыбалку дети — брат и сестра Сашко и Иванка, они идут на Синевир. Поначалу дети заняты ловлей рыбы и спорами о том, у кого будет больше улов. Неожиданно в лесу слышится крик «Ау!». Иванка и Сашко решают, что это заблудились туристы и им нужно помочь. Однако никаких туристов там нет…



Качество: DVDRip / DVD5 R5 от MEGOGO
Формат: AVI

Видео: 720x384 (1.85:1), 25.000 fps, XviD, ~2392 kbps avg, 0.346 bit/pix
Аудио: 48 kHz, Dolby АС3, 6 ch, 448 kbps, русский

Раздача от:
Общее
Полное имя : Sinevir.2013.O.DVDRip_[New-Team]_by_avproh.avi
Формат : AVI
Формат/Информация : Audio Video Interleave
Размер файла : 1,46 Гбайт
Продолжительность : 1 ч. 13 м.
Общий поток : 2850 Кбит/сек
Программа кодирования : VirtualDubMod 1.5.10.3 | www.virtualdub-fr.org || (build 2550/release)
Библиотека кодирования : VirtualDubMod build 2550/release

Видео
Идентификатор : 0
Формат : MPEG-4 Visual
Профиль формата : Advanced Simple@L5
Параметр BVOP формата : 1
Параметр QPel формата : Нет
Параметр GMC формата : Без точки перехода
Параметр матрицы формата : Выборочная
Идентификатор кодека : XVID
Идентификатор кодека/Подсказка : XviD
Продолжительность : 1 ч. 13 м.
Битрейт : 2392 Кбит/сек
Ширина : 720 пикселей
Высота : 384 пикселя
Соотношение сторон : 1,85:1
Частота кадров : 25,000 кадров/сек
Цветовое пространство : YUV
Субдискретизация насыщенности : 4:2:0
Битовая глубина : 8 бит
Тип развёртки : Прогрессивная
Метод сжатия : С потерями
Бит/(Пиксели*Кадры) : 0.346
Размер потока : 1,22 Гбайт (84%)
Библиотека кодирования : XviD 73

Аудио
Идентификатор : 1
Формат : AC-3
Формат/Информация : Audio Coding 3
Расширение режима : CM (complete main)
Параметр Endianness формата : Big
Идентификатор кодека : 2000
Продолжительность : 1 ч. 13 м.
Вид битрейта : Постоянный
Битрейт : 448 Кбит/сек
Каналы : 6 каналов
Расположение каналов : Front: L C R, Side: L R, LFE
Частота : 48,0 КГц
Битовая глубина : 16 бит
Метод сжатия : С потерями
Размер потока : 234 Мбайт (16%)
Выравнивание : Разделение по промежуткам
Продолжительность промежутка : 40 мс. (1,00 видеокадр)
Время предзагрузки промежутка : 500 мс.





   Похожие торренты   Торрент   Размер 
В этой теме нет новых непрочитанных сообщений. Синевир (2013) DVDRip от New-Team | лицензия

272 | 11

746.68 МБ

В этой теме нет новых непрочитанных сообщений. Синевир (2013) DVDRip-AVC от New-Team | лицензия

390 | 22

1.45 ГБ

В этой теме нет новых непрочитанных сообщений. Синевир (2013) DVD5 R5 от New-Team | лицензия

99 | 9

3.37 ГБ

В этой теме нет новых непрочитанных сообщений. Синевир (2013) WEB-DL 1080p | Лицензия

190 | 20

2.7 ГБ

В этой теме нет новых непрочитанных сообщений. Синевир (2013) WEB-DL 720p | Лицензия

89 | 19

1.5 ГБ

В этой теме нет новых непрочитанных сообщений. Синевир (2013) WEB-DLRip от FreeRutor

1635 | 190

1.37 ГБ

В этой теме нет новых непрочитанных сообщений. Синевир / Synevir (2013) WEB-DLRip

196 | 41

747.46 МБ




Вы не можете начинать темы
Вы не можете отвечать на сообщения
Вы не можете редактировать свои сообщения
Вы не можете удалять свои сообщения
Вы не можете добавлять вложения

Перейти:  
Для Мосгорсуда, Роскомнадзора и рекламодателей: mosgorsud-torrent[собачка]yandex.ru
 Вход
ppkBB3cker v.2 © 2008-2014 @ PPK
[ Time : 0.036s | 14 Queries | GZIP : Off ]

Торрент трекер RUTOR.IN, Не можете зайти на rutor.org? Какой новый адрес рутор? Какое зеркало рутор? Не работает rutor.org и зеркала? Тогда наш торрент специально для вас. Rutor.in неофициальное зеркало rutor. В случае если у Вас заблокирован rutor или вдруг Вы не можете на него зайти, то Вы без труда сможете скачать бесплатно и без рекламы последние новинки кино, игр, сериалов и прочего у нас, на Rutor.in. Не нужно использовать прокси, чтобы зайти на рутор, достаточно воспользоваться нашим ресурсом. Все новые фильмы, игры, сериалы, книги и музыка за 2013 и 2014 годы через торрент бесплатно. Скачивайте фильмы в хорошем качестве, игры для пк, xbox, playstation без регистрации. У нас вы найдете новые Зарубежные сериалы и Русские сериалы 2013, 2014, 2015 годов. Оставайтесь с нами, качайте любимые фильмы, игры, сериалы, книги и музыку.