img image001 image001 image001 image001 image001 image001 image001 image001 image001 image001 image001 image001 image001 image001 image001

Planets Sun Sun Sun
Статистика раздачи
Автор: Nickolas3434 | Размер: 1.46 ГБ | Добавлен: 11 июн 2014
Раздают: 137    Качают: 20
Скачать торрент
Скачать торрент
Описание торрента

СообщениеДобавлено: 11 июн 2014 

Страна: Россия
Производство: Кинокомпания CTB

Жанр: комедия, криминал
Год выпуска: 1997
Продолжительность: 1:21:57

Перевод: не требуется
Оригинальная аудиодорожка: русский
Cубтитры: нет

Режиссер: Максим Пежемский

В ролях:
Гоша Куценко, Евгений Сидихин, Сергей Векслер, Валерий Приемыхов, Нина Русланова, Александр Баширов, Елена Шевченко, Иван Охлобыстин, Николай Чиндяйкин, Сергей Колтаков, Сергей Данилевич, Маша Машкова, Иван Бортник, Андрей Панин, Маша Бакланова, Олеся Судзиловская, Дмитрий Петухов, Виктор Вержбицкий, Игорь Юраш...

Описание:
Была свадьба. Гуляли реальные люди. Чисто конкретно пели-плясали, отдыхали по-человечески. И развели их на драку. Морячок взял да и огрел стулом Туриста. Чтоб к невесте не приставал. А Турист был серьезный мужчина. И потому сразу образовались такие разборки, что мама не горюй! Морячок с собственной свадьбы сделал ноги, и наутро его уже искали милиция, киллеры, родственники невесты, друзья Туриста и разный прочий любопытный народ…





Исходник: DVD9 R5
Тип релиза: DVDRip
Контейнер: AVI

Видео: 688x448 (1,535:1), 25 fps, XviD ~ 2088 kbps avg, 0.271 bit/pixel
Аудио: 48 kHz, Dolby Digital AC3 5.1, 448 kbps

Раздача от:
Общее
Полное имя : Mama.ne.goryuy.1997.DVDRip_[New-team]_by_AVP_Studio.avi
Формат : AVI
Формат/Информация : Audio Video Interleave
Размер файла : 1,46 Гбайт
Продолжительность : 1 ч. 21 м.
Общий поток : 2545 Кбит/сек
Программа кодирования : VirtualDubModRus 1.5.10.2 (build 2542/release)
Библиотека кодирования : VirtualDubMod build 2542/release

Видео
Идентификатор : 0
Формат : MPEG-4 Visual
Профиль формата : Advanced Simple@L5
Параметр BVOP формата : 1
Параметр QPel формата : Нет
Параметр GMC формата : Без точки перехода
Параметр матрицы формата : Выборочная
Идентификатор кодека : XVID
Идентификатор кодека/Подсказка : XviD
Продолжительность : 1 ч. 21 м.
Битрейт : 2088 Кбит/сек
Ширина : 688 пикселей
Высота : 448 пикселей
Соотношение сторон : 3:2
Частота кадров : 25,000 кадров/сек
Цветовое пространство : YUV
Субдискретизация насыщенности : 4:2:0
Битовая глубина : 8 бит
Тип развёртки : Прогрессивная
Метод сжатия : С потерями
Бит/(Пиксели*Кадры) : 0.271
Размер потока : 1,20 Гбайт (82%)
Библиотека кодирования : XviD 73

Аудио
Идентификатор : 1
Формат : AC-3
Формат/Информация : Audio Coding 3
Расширение режима : CM (complete main)
Параметр Endianness формата : Big
Идентификатор кодека : 2000
Продолжительность : 1 ч. 21 м.
Вид битрейта : Постоянный
Битрейт : 448 Кбит/сек
Каналы : 6 каналов
Расположение каналов : Front: L C R, Side: L R, LFE
Частота : 48,0 КГц
Битовая глубина : 16 бит
Метод сжатия : С потерями
Размер потока : 263 Мбайт (18%)
Выравнивание : Разделение по промежуткам
Продолжительность промежутка : 40 мс. (1,00 видеокадр)
Время предзагрузки промежутка : 500 мс





   Похожие торренты   Торрент   Размер 
В этой теме нет новых непрочитанных сообщений. Мама не горюй (1997) DVDRip-AVC от New-Team

1075 | 26

1.46 ГБ

В этой теме нет новых непрочитанных сообщений. Мама не горюй (1997) DVDRip от New-Team

78 | 10

744.8 МБ

В этой теме нет новых непрочитанных сообщений. Мама, не горюй! (1997) DVDRip

44 | 7

1.37 ГБ

В этой теме нет новых непрочитанных сообщений. Мама не горюй (1997) DVDRip

44 | 7

743 МБ

В этой теме нет новых непрочитанных сообщений. Мама не горюй 2 (2005) DVDRip от wowa63

299 | 30

1.37 ГБ

В этой теме нет новых непрочитанных сообщений. Не горюй! (1968) DVDRip-AVC

114 | 7

1.96 ГБ

В этой теме нет новых непрочитанных сообщений. До свидания мама (2014) DVDRip-AVC от New-Team | лицензия

443 | 13

1.45 ГБ




Вы не можете начинать темы
Вы не можете отвечать на сообщения
Вы не можете редактировать свои сообщения
Вы не можете удалять свои сообщения
Вы не можете добавлять вложения

Перейти:  
Для Мосгорсуда, Роскомнадзора и рекламодателей: mosgorsud-torrent[собачка]yandex.ru
 Вход
ppkBB3cker v.2 © 2008-2014 @ PPK
[ Time : 0.029s | 18 Queries | GZIP : Off ]

Торрент трекер RUTOR.IN, Не можете зайти на rutor.org? Какой новый адрес рутор? Какое зеркало рутор? Не работает rutor.org и зеркала? Тогда наш торрент специально для вас. Rutor.in неофициальное зеркало rutor. В случае если у Вас заблокирован rutor или вдруг Вы не можете на него зайти, то Вы без труда сможете скачать бесплатно и без рекламы последние новинки кино, игр, сериалов и прочего у нас, на Rutor.in. Не нужно использовать прокси, чтобы зайти на рутор, достаточно воспользоваться нашим ресурсом. Все новые фильмы, игры, сериалы, книги и музыка за 2013 и 2014 годы через торрент бесплатно. Скачивайте фильмы в хорошем качестве, игры для пк, xbox, playstation без регистрации. У нас вы найдете новые Зарубежные сериалы и Русские сериалы 2013, 2014, 2015 годов. Оставайтесь с нами, качайте любимые фильмы, игры, сериалы, книги и музыку.
cron