img image001 image001 image001 image001 image001 image001 image001 image001 image001 image001 image001 image001 image001 image001 image001

Planets Sun Sun Sun
Статистика раздачи
Автор: Nickolas3434 | Размер: 745.21 МБ | Добавлен: 11 июн 2014
Раздают: 570    Качают: 106
Скачать торрент
Скачать торрент
Описание торрента

СообщениеДобавлено: 11 июн 2014 

«Своих не бросаем»




Страна: Россия / Централ Партнершип

Жанр: боевик
Год выпуска: 2014
Продолжительность: 01:19:29

Перевод: Не требуется
Cубтитры: нет
Оригинальная аудиодорожка: русский

Режиссер: Василий Сериков

В ролях: Макар Запорожский, Денис Никифоров, Виктор Сухоруков, Екатерина Маликова, Гаэль Камилинди, Александр Галибин, Владислав Демин, Ибрагим Тооре, Софья Козко, Иван Породнов...

Описание: Морпех — первогодок Саня Ежов оказывается среди пиратов на захваченном танкере. Он знает — товарищи не бросят. Ему нужно выжить и помочь своим, когда начнется штурм. Фильм основан на реальных событиях 5 мая 2010 года, когда морские пехотинцы БПК «Маршал Шапошников» освободили захваченный в водах Аденского залива российский танкер «Московский университет». У них было только 22 минуты без права на ошибку…



Качество: DVDRip / DVD9 R5 от Lizard Cinema Trade
Формат: AVI

Видео: 720x304 (2.35:1), 25.000 fps, XviD, ~1173 kbps avg, 0.214 bit/pix
Аудио: 48 kHz, Dolby МР3, 2 ch, 128 kbps, русский

Раздача от:
Общее
Полное имя : 22.minuty.2014.O.DVDrip.745MB_[New-Team]_by_avproh.avi
Формат : AVI
Формат/Информация : Audio Video Interleave
Размер файла : 745 Мбайт
Продолжительность : 1 ч. 19 м.
Общий поток : 1311 Кбит/сек
Программа кодирования : VirtualDubMod 1.5.10.3 | www.virtualdub-fr.org || (build 2550/release)
Библиотека кодирования : VirtualDubMod build 2550/release

Видео
Идентификатор : 0
Формат : MPEG-4 Visual
Профиль формата : Advanced Simple@L5
Параметр BVOP формата : 1
Параметр QPel формата : Нет
Параметр GMC формата : Без точки перехода
Параметр матрицы формата : Выборочная
Идентификатор кодека : XVID
Идентификатор кодека/Подсказка : XviD
Продолжительность : 1 ч. 19 м.
Битрейт : 1173 Кбит/сек
Ширина : 720 пикселей
Высота : 304 пикселя
Соотношение сторон : 2,35:1
Частота кадров : 25,000 кадров/сек
Цветовое пространство : YUV
Субдискретизация насыщенности : 4:2:0
Битовая глубина : 8 бит
Тип развёртки : Прогрессивная
Метод сжатия : С потерями
Бит/(Пиксели*Кадры) : 0.214
Размер потока : 667 Мбайт (89%)
Библиотека кодирования : XviD 73

Аудио
Идентификатор : 1
Формат : MPEG Audio
Версия формата : Version 1
Профиль формата : Layer 3
Идентификатор кодека : 55
Идентификатор кодека/Подсказка : MP3
Продолжительность : 1 ч. 19 м.
Вид битрейта : Постоянный
Битрейт : 128 Кбит/сек
Каналы : 2 канала
Частота : 48,0 КГц
Метод сжатия : С потерями
Размер потока : 72,8 Мбайт (10%)
Выравнивание : Соединение по промежуткам
Продолжительность промежутка : 40 мс. (1,00 видеокадр)
Время предзагрузки промежутка : 504 мс.





   Похожие торренты   Торрент   Размер 
В этой теме нет новых непрочитанных сообщений. 22 минуты (2014) DVDRip от New-Team | лицензия

2661 | 248

1.46 ГБ

В этой теме нет новых непрочитанных сообщений. 22 минуты (2014) DVDRip-AVC от New-Team | лицензия

1252 | 280

1.45 ГБ

В этой теме нет новых непрочитанных сообщений. 22 минуты (2014) DVD9 от New-Team | Лицензия

43 | 22

4.6 ГБ

В этой теме нет новых непрочитанных сообщений. 22 минуты (2014) DVD5 от New-Team | Сжатый

66 | 39

4.37 ГБ

В этой теме нет новых непрочитанных сообщений. 22 минуты (2014) HDRip | Лицензия

3325 | 265

1.37 ГБ

В этой теме нет новых непрочитанных сообщений. 22 минуты (2014) HDRip-AVC | Лицензия

908 | 159

1.36 ГБ

В этой теме нет новых непрочитанных сообщений. 22 минуты (2014) BDRip-AVC от HELLYWOOD | Лицензия

479 | 26

1.46 ГБ




Вы не можете начинать темы
Вы не можете отвечать на сообщения
Вы не можете редактировать свои сообщения
Вы не можете удалять свои сообщения
Вы не можете добавлять вложения

Перейти:  
Для Мосгорсуда, Роскомнадзора и рекламодателей: mosgorsud-torrent[собачка]yandex.ru
 Вход
ppkBB3cker v.2 © 2008-2014 @ PPK
[ Time : 0.046s | 15 Queries | GZIP : Off ]

cron