img image001 image001 image001 image001 image001 image001 image001 image001 image001 image001 image001 image001 image001 image001 image001

Planets Sun Sun Sun
Статистика раздачи
Автор: Nickolas3434 | Размер: 1.45 ГБ | Добавлен: 12 июн 2014
Раздают: 1252    Качают: 280
Скачать торрент
Скачать торрент
Описание торрента

СообщениеДобавлено: 12 июн 2014 

«Своих не бросаем»




Страна: Россия / Централ Партнершип

Жанр: боевик
Год выпуска: 2014
Продолжительность: 01:19:29

Перевод: Не требуется
Cубтитры: нет
Оригинальная аудиодорожка: русский

Режиссер: Василий Сериков

В ролях: Макар Запорожский, Денис Никифоров, Виктор Сухоруков, Екатерина Маликова, Гаэль Камилинди, Александр Галибин, Владислав Демин, Ибрагим Тооре, Софья Козко, Иван Породнов...

Описание: Морпех — первогодок Саня Ежов оказывается среди пиратов на захваченном танкере. Он знает — товарищи не бросят. Ему нужно выжить и помочь своим, когда начнется штурм. Фильм основан на реальных событиях 5 мая 2010 года, когда морские пехотинцы БПК «Маршал Шапошников» освободили захваченный в водах Аденского залива российский танкер «Московский университет». У них было только 22 минуты без права на ошибку…



Качество: DVDRip-AVC / DVD9 R5 от Lizard Cinema Trade
Формат: MKV

Видео: 720x424@1024x424 (2.35:1), 25.000 fps, MPEG-4 AVC, ~2172 kbps avg, 0.285 bit/pix
Аудио: 48 kHz, Dolby AC3, 6 ch, 448 kbps, русский

Раздача от:
Общее
Полное имя : 22.minuty.2014.O.DVDRip-AVC_[New-Team]_by_avproh.mkv
Формат : Matroska
Версия формата : Version 2
Размер файла : 1,45 Гбайт
Продолжительность : 1 ч. 19 м.
Общий поток : 2603 Кбит/сек
Дата кодирования : UTC 2014-06-09 18:40:17
Программа кодирования : mkvmerge v6.1.0 ('Old Devil') built on Mar 4 2013 09:10:42
Библиотека кодирования : libebml v1.3.0 + libmatroska v1.4.0

Видео
Идентификатор : 1
Формат : AVC
Формат/Информация : Advanced Video Codec
Профиль формата : High@L4.1
Параметр CABAC формата : Да
Параметр ReFrames формата : 8 кадров
Идентификатор кодека : V_MPEG4/ISO/AVC
Продолжительность : 1 ч. 19 м.
Битрейт : 2172 Кбит/сек
Ширина : 720 пикселей
Высота : 424 пикселя
Соотношение сторон : 2,40:1
Режим частоты кадров : Постоянный
Частота кадров : 25,000 кадров/сек
Цветовое пространство : YUV
Субдискретизация насыщенности : 4:2:0
Битовая глубина : 8 бит
Тип развёртки : Прогрессивная
Бит/(Пиксели*Кадры) : 0.285
Размер потока : 1,17 Гбайт (81%)
Библиотека кодирования : x264 core 138 r2356 a1d3d17
Настройки программы : cabac=1 / ref=8 / deblock=1:-2:-1 / analyse=0x3:0x113 / me=umh / subme=10 / psy=1 / psy_rd=1.00:0.05 / mixed_ref=1 / me_range=32 / chroma_me=1 / trellis=2 / 8x8dct=1 / cqm=0 / deadzone=21,11 / fast_pskip=0 / chroma_qp_offset=-3 / threads=6 / lookahead_threads=1 / sliced_threads=0 / nr=0 / decimate=0 / interlaced=0 / bluray_compat=0 / constrained_intra=0 / bframes=8 / b_pyramid=2 / b_adapt=2 / b_bias=0 / direct=3 / weightb=1 / open_gop=0 / weightp=2 / keyint=250 / keyint_min=25 / scenecut=40 / intra_refresh=0 / rc=2pass / mbtree=0 / bitrate=2172 / ratetol=1.0 / qcomp=0.60 / qpmin=0 / qpmax=69 / qpstep=4 / cplxblur=20.0 / qblur=0.5 / ip_ratio=1.40 / pb_ratio=1.30 / aq=1:1.00
Default : Да
Forced : Нет

Аудио
Идентификатор : 2
Формат : AC-3
Формат/Информация : Audio Coding 3
Расширение режима : CM (complete main)
Параметр Endianness формата : Big
Идентификатор кодека : A_AC3
Продолжительность : 1 ч. 19 м.
Вид битрейта : Постоянный
Битрейт : 448 Кбит/сек
Каналы : 6 каналов
Расположение каналов : Front: L C R, Side: L R, LFE
Частота : 48,0 КГц
Битовая глубина : 16 бит
Метод сжатия : С потерями
Размер потока : 255 Мбайт (17%)
Default : Да
Forced : Нет





   Похожие торренты   Торрент   Размер 
В этой теме нет новых непрочитанных сообщений. 22 минуты (2014) DVDRip от New-Team | лицензия

570 | 106

745.21 МБ

В этой теме нет новых непрочитанных сообщений. 22 минуты (2014) DVDRip от New-Team | лицензия

2661 | 248

1.46 ГБ

В этой теме нет новых непрочитанных сообщений. 22 минуты (2014) DVD9 от New-Team | Лицензия

43 | 22

4.6 ГБ

В этой теме нет новых непрочитанных сообщений. 22 минуты (2014) DVD5 от New-Team | Сжатый

66 | 39

4.37 ГБ

В этой теме нет новых непрочитанных сообщений. 22 минуты (2014) HDRip | Лицензия

3325 | 265

1.37 ГБ

В этой теме нет новых непрочитанных сообщений. 22 минуты (2014) HDRip-AVC | Лицензия

908 | 159

1.36 ГБ

В этой теме нет новых непрочитанных сообщений. 22 минуты (2014) BDRip 720p | Лицензия

874 | 165

4.69 ГБ




Вы не можете начинать темы
Вы не можете отвечать на сообщения
Вы не можете редактировать свои сообщения
Вы не можете удалять свои сообщения
Вы не можете добавлять вложения

Перейти:  
Для Мосгорсуда, Роскомнадзора и рекламодателей: mosgorsud-torrent[собачка]yandex.ru
 Вход
ppkBB3cker v.2 © 2008-2014 @ PPK
[ Time : 0.105s | 14 Queries | GZIP : Off ]

Торрент трекер RUTOR.IN, Не можете зайти на rutor.org? Какой новый адрес рутор? Какое зеркало рутор? Не работает rutor.org и зеркала? Тогда наш торрент специально для вас. Rutor.in неофициальное зеркало rutor. В случае если у Вас заблокирован rutor или вдруг Вы не можете на него зайти, то Вы без труда сможете скачать бесплатно и без рекламы последние новинки кино, игр, сериалов и прочего у нас, на Rutor.in. Не нужно использовать прокси, чтобы зайти на рутор, достаточно воспользоваться нашим ресурсом. Все новые фильмы, игры, сериалы, книги и музыка за 2013 и 2014 годы через торрент бесплатно. Скачивайте фильмы в хорошем качестве, игры для пк, xbox, playstation без регистрации. У нас вы найдете новые Зарубежные сериалы и Русские сериалы 2013, 2014, 2015 годов. Оставайтесь с нами, качайте любимые фильмы, игры, сериалы, книги и музыку.