img image001 image001 image001 image001 image001 image001 image001 image001 image001 image001 image001 image001 image001 image001 image001

Planets Sun Sun Sun
Статистика раздачи
Автор: Nickolas3434 | Размер: 744.87 МБ | Добавлен: 11 июн 2014, 14:52
Раздают: 927    Качают: 50
Скачать торрент
Скачать торрент
Описание торрента

СообщениеДобавлено: 11 июн 2014, 14:52 

Страна: СССР
Производство: Студия Горького

Жанр: комедия
Год выпуска: 1963
Продолжительность: 01:24:25

Перевод: не требуется
Оригинальная аудиодорожка: русский
Cубтитры: нет

Режиссер: Генрих Оганисян

В ролях:
Андрей Миронов, Евгений Жариков, Геннадий Нилов, Наталья Кустинская, Наталья Фатеева...

Описание:
Трое друзей из Москвы живут «дикарями» в замечательном месте с песчаным пляжем, пресной водой, тенью и дровами у самого моря. Отдыхают. Внезапно приезжают две незнакомки и заявляют, что это их старое место. Более того, они доказывают свое первенство, выкопав бутылку с письмом. Но уезжать ребята отказываются. Дамы же от своего места отказываться тоже не собираются и ставят палатку. Начинается тихая война, перерастающая со временем в любовь.
Один из тех фильмов, которые можно пересматривать не один раз.






Исходник: HDTVRip 1080i
Тип релиза: HDTVRip
Контейнер: AVI

Видео: 720x304 (1,35:1), 25 fps, XviD ~ 1096 kbps avg, 0.200 bit/pixel
Аудио: 48 kHz, MP3 2.0, 128 kbps

Раздача от:
Общее
Полное имя : Tri.plyus.dva.1963.HDTVRip-745_[New-team]_by_AVP_Studio.avi
Формат : AVI
Формат/Информация : Audio Video Interleave
Размер файла : 745 Мбайт
Продолжительность : 1 ч. 24 м.
Общий поток : 1234 Кбит/сек
Программа кодирования : VirtualDubModRus 1.5.10.2 (build 2542/release)
Библиотека кодирования : VirtualDubMod build 2542/release

Видео
Идентификатор : 0
Формат : MPEG-4 Visual
Профиль формата : Advanced Simple@L5
Параметр BVOP формата : 1
Параметр QPel формата : Нет
Параметр GMC формата : Без точки перехода
Параметр матрицы формата : Выборочная
Идентификатор кодека : XVID
Идентификатор кодека/Подсказка : XviD
Продолжительность : 1 ч. 24 м.
Битрейт : 1096 Кбит/сек
Ширина : 720 пикселей
Высота : 304 пикселя
Соотношение сторон : 2,35:1
Частота кадров : 25,000 кадров/сек
Цветовое пространство : YUV
Субдискретизация насыщенности : 4:2:0
Битовая глубина : 8 бит
Тип развёртки : Прогрессивная
Метод сжатия : С потерями
Бит/(Пиксели*Кадры) : 0.200
Размер потока : 662 Мбайт (89%)
Библиотека кодирования : XviD 73

Аудио
Идентификатор : 1
Формат : MPEG Audio
Версия формата : Version 1
Профиль формата : Layer 3
Идентификатор кодека : 55
Идентификатор кодека/Подсказка : MP3
Продолжительность : 1 ч. 24 м.
Вид битрейта : Постоянный
Битрейт : 128 Кбит/сек
Каналы : 2 канала
Частота : 48,0 КГц
Метод сжатия : С потерями
Размер потока : 77,3 Мбайт (10%)
Выравнивание : Соединение по промежуткам
Продолжительность промежутка : 40 мс. (1,00 видеокадр)
Время предзагрузки промежутка : 504 мс.
Библиотека кодирования : LAME3.99r
Настройки программы : -m s -V 4 -q 2 -lowpass 17 -b 128



Фильм "Три плюс два" был снят в двух версиях - для показа в кинотеатрах и по телевидению. То, что мы видели - это урезанная версия фильма - для показа по ТВ. Настоящий фильм - это широкоэкранная картина, совершенно другой монтаж, который снимался совместно с Ригой. Но он был смыт с пленки на Рижской киностудии, по понятным только им причинам.
Фактически было снято два разных фильма. Почему разных и как это получилось?
Все знают, что в процессе съемок фильма бывают дубли и они реально чем-то отличаются друг от друга.
Теперь о фильме. Сначала снимали сцену с актерами для обычного формата, потом актеры играли вновь эту сцену и ее снимали уже другой аппаратурой для широкоэкранного формата. Теперь вы понимаете, что сыграть ту же сцену зеркально невозможно. В итоге метраж широкоэкранного фильма был 2765 метров
(у фильма в обычном варианте - 2432 метра), что означает по времени на 10 минут длиннее.



   Похожие торренты   Торрент   Размер 
В этой теме нет новых непрочитанных сообщений. Три плюс два (1963) HDTVRip-AVC от New-Team | Широкоформатная версия

101 | 28

1.46 ГБ

В этой теме нет новых непрочитанных сообщений. Три плюс два (1963) HDTVRip от New-Team | Широкоформатная версия

177 | 28

1.46 ГБ

В этой теме нет новых непрочитанных сообщений. Три плюс два (1963) HDTVRip 720p от New-Team | Широкоформатная версия

447 | 136

2.19 ГБ

В этой теме нет новых непрочитанных сообщений. Три плюс два (Широкоэкранная полная версия) (1963) HDTVRip от GeneralFilm

601 | 30

1.33 ГБ

В этой теме нет новых непрочитанных сообщений. Три плюс два (1963) BDRip | Широкоэкранная версия

193 | 5

1.46 ГБ

В этой теме нет новых непрочитанных сообщений. Три плюс два (1963) BDRip от HQCLUB | Широкоэкранная версия

256 | 21

1.45 ГБ

В этой теме нет новых непрочитанных сообщений. Три плюс два (1963) BDRip от GeneralFilm | Широкоэкранная версия

123 | 6

703.04 МБ




Вы не можете начинать темы
Вы не можете отвечать на сообщения
Вы не можете редактировать свои сообщения
Вы не можете удалять свои сообщения
Вы не можете добавлять вложения

Перейти:  
Для Мосгорсуда, Роскомнадзора и рекламодателей: mosgorsud-torrent[собачка]yandex.ru
Настройки
ppkBB3cker v.2 © 2008-2014 @ PPK
[ Time : 0.567s | 14 Queries | GZIP : Off ]
CGP [Extreme] output time : 0.00024s | 0 Queries | GZIP : Off

Торрент трекер RUTOR.IN, Не можете зайти на rutor.org? Какой новый адрес рутор? Какое зеркало рутор? Не работает rutor.org и зеркала? Тогда наш торрент специально для вас. Rutor.in неофициальное зеркало rutor. В случае если у Вас заблокирован rutor или вдруг Вы не можете на него зайти, то Вы без труда сможете скачать бесплатно и без рекламы последние новинки кино, игр, сериалов и прочего у нас, на Rutor.in. Не нужно использовать прокси, чтобы зайти на рутор, достаточно воспользоваться нашим ресурсом. Все новые фильмы, игры, сериалы, книги и музыка за 2013 и 2014 годы через торрент бесплатно. Скачивайте фильмы в хорошем качестве, игры для пк, xbox, playstation без регистрации. У нас вы найдете новые Зарубежные сериалы и Русские сериалы 2013, 2014, 2015 годов. Оставайтесь с нами, качайте любимые фильмы, игры, сериалы, книги и музыку.