img image001 image001 image001 image001 image001 image001 image001 image001 image001 image001 image001 image001 image001 image001 image001

Planets Sun Sun Sun
Статистика раздачи
Автор: Nickolas3434 | Размер: 7.47 ГБ | Добавлен: 11 июн 2014
Раздают: 473    Качают: 123
Скачать торрент
Скачать торрент
Описание торрента

СообщениеДобавлено: 11 июн 2014 

Информация о фильме
Оригинальное название: Скорый «Москва-Россия»
Год выпуска: 2014
Жанр: Комедия, приключения
Режиссер: Игорь Волошин
В ролях: Сергей Светлаков, Маргарита Левиева, Павел Деревянко, Майкл Мэдсен, Ингеборга Дапкунайте, Спартак Кондауров, Максим Голополосов, Иван Ургант, Виктор Проскурин, Ольга Симонова

Описание: Это история про парня, который душу готов продать, лишь бы набрать миллион просмотров для своего видео на YouTube. На пути к своей цели он оказывается в скором поезде «Москва — Владивосток», где сталкивается с американской актрисой, страдающей аэрофобией. В пути незнакомцев ожидают такие приключения, что они отстают от поезда, который пытаются догнать, продвигаясь по нашей непредсказуемой и сказочной России-матушке… Ведь каждому из них нужно оказаться во Владивостоке ровно через 7 дней — по причинам, которые они тщательно скрывают друг от друга.



Выпущено: Россия / Bulldozerfilms
Продолжительность: 01:24:40

Файл
Качество: BDRip 1080p
Видео: MPEG-4 AVC, 10500 Кбит/с, 1920x820, 25.000 кадр/с
Аудио #1: Русский (DTS, 6 ch, 1509 Кбит/с)
Аудио #2: Русский (AC3, 6 ch, 640 Кбит/с)

Семпл




x264 [info]: frame I:1115 Avg QP:16.68 size:203064
x264 [info]: frame P:33654 Avg QP:19.38 size: 92500
x264 [info]: frame B:92231 Avg QP:21.43 size: 35979
x264 [info]: consecutive B-frames: 5.4% 5.9% 13.9% 20.0% 11.3% 39.6% 2.2% 0.5% 1.2%
************************************************************************************************
Общее
Уникальный идентификатор : 231686301461405307971321550130789812959 (0xAE4D2897F86EAC72A8221A208A610ADF)
Полное имя : D:Mои раздачиSkoryi.Moskva-Rossiya.2014.BDRip.1080p-MediaClub.mkv
Формат : Matroska
Версия формата : Version 4 / Version 2
Размер файла : 7,47 Гбайт
Продолжительность : 1 ч. 24 м.
Общий поток : 12,6 Мбит/сек
Название фильма : -=MediaClub-kaspr=-
Дата кодирования : UTC 2014-06-11 04:34:10
Программа кодирования : mkvmerge v6.9.1 ('Blue Panther') 64bit built on Apr 18 2014 18:23:38
Библиотека кодирования : libebml v1.3.0 + libmatroska v1.4.1

Видео
Идентификатор : 1
Формат : AVC
Формат/Информация : Advanced Video Codec
Профиль формата : High@L4.1
Параметр CABAC формата : Да
Параметр ReFrames формата : 5 кадров
Идентификатор кодека : V_MPEG4/ISO/AVC
Продолжительность : 1 ч. 24 м.
Битрейт : 10,5 Мбит/сек
Ширина : 1920 пикселей
Высота : 820 пикселей
Соотношение сторон : 2,35:1
Режим частоты кадров : Постоянный
Частота кадров : 25,000 кадров/сек
Цветовое пространство : YUV
Субдискретизация насыщенности : 4:2:0
Битовая глубина : 8 бит
Тип развёртки : Прогрессивная
Бит/(Пиксели*Кадры) : 0.267
Размер потока : 6,05 Гбайт (81%)
Заголовок : -=MediaClub-kaspr=-
Библиотека кодирования : x264 core 142 r2431+42 c69a006 tMod [8-bit@4:2:0 X86_64]
Настройки программы : cabac=1 / ref=5 / deblock=1:-3:-3 / analyse=0x3:0x113 / me=umh / subme=11 / psy=1 / fade_compensate=0.00 / psy_rd=1.00:0.20 / mixed_ref=1 / me_range=32 / chroma_me=1 / trellis=2 / 8x8dct=1 / cqm=0 / deadzone=21,11 / fast_pskip=0 / chroma_qp_offset=-3 / threads=12 / lookahead_threads=2 / sliced_threads=0 / nr=0 / decimate=0 / interlaced=0 / bluray_compat=0 / constrained_intra=0 / fgo=0 / bframes=8 / b_pyramid=2 / b_adapt=2 / b_bias=0 / direct=3 / weightb=1 / open_gop=0 / weightp=2 / keyint=250 / keyint_min=25 / scenecut=40 / intra_refresh=0 / rc=2pass / mbtree=0 / bitrate=10500 / ratetol=1.0 / qcomp=0.60 / qpmin=0:0:0 / qpmax=69:69:69 / qpstep=4 / cplxblur=20.0 / qblur=0.5 / ip_ratio=1.40 / pb_ratio=1.30 / aq=4:0.80 / aq-sensitivity=10.00 / aq-factor=1.00:1.00:1.00 / aq2=0 / aq3=0
Default : Да
Forced : Да

Аудио #1
Идентификатор : 2
Формат : DTS
Формат/Информация : Digital Theater Systems
Режим : 16
Параметр Endianness формата : Big
Идентификатор кодека : A_DTS
Продолжительность : 1 ч. 24 м.
Вид битрейта : Постоянный
Битрейт : 1509 Кбит/сек
Каналы : 6 каналов
Расположение каналов : Front: L C R, Side: L R, LFE
Частота : 48,0 КГц
Битовая глубина : 24 бит
Метод сжатия : С потерями
Размер потока : 914 Мбайт (12%)
Заголовок : DTS
Язык : Russian
Default : Да
Forced : Да

Аудио #2
Идентификатор : 3
Формат : AC-3
Формат/Информация : Audio Coding 3
Расширение режима : CM (complete main)
Параметр Endianness формата : Big
Идентификатор кодека : A_AC3
Продолжительность : 1 ч. 24 м.
Вид битрейта : Постоянный
Битрейт : 640 Кбит/сек
Каналы : 6 каналов
Расположение каналов : Front: L C R, Side: L R, LFE
Частота : 48,0 КГц
Битовая глубина : 16 бит
Метод сжатия : С потерями
Размер потока : 388 Мбайт (5%)
Заголовок : AC3
Язык : Russian
Default : Нет
Forced : Нет

Меню
00:00:00.000 : en:Chapter 01
00:04:58.799 : en:Chapter 02
00:13:18.520 : en:Chapter 03
00:18:53.040 : en:Chapter 04
00:26:36.880 : en:Chapter 05
00:32:51.680 : en:Chapter 06
00:37:36.320 : en:Chapter 07
00:46:35.320 : en:Chapter 08
00:53:10.640 : en:Chapter 09
00:59:20.439 : en:Chapter 10
01:06:59.200 : en:Chapter 11
01:17:30.000 : en:Chapter 12


Релиз: |



   Похожие торренты   Торрент   Размер 
В этой теме нет новых непрочитанных сообщений. Скорый Москва-Россия (2014) BDRip 1080p | Лицензия

393 | 32

7.53 ГБ

В этой теме нет новых непрочитанных сообщений. Скорый «Москва-Россия» (2014) BDRip от HQCLUB | Лицензия

6971 | 361

1.45 ГБ

В этой теме нет новых непрочитанных сообщений. Скорый «Москва-Россия» (2014) BDRip-AVC от HELLYWOOD | Лицензия

979 | 44

1.46 ГБ

В этой теме нет новых непрочитанных сообщений. Скорый Москва-Россия (2014) BDRip 720p | Лицензия

1462 | 233

4.17 ГБ

В этой теме нет новых непрочитанных сообщений. Скорый «Москва-Россия» (2014) DVDRip от MediaClub | КПК

159 | 13

382.07 МБ

В этой теме нет новых непрочитанных сообщений. Скорый Москва-Россия (2014) HDRip | Лицензия

630 | 80

699.44 МБ

В этой теме нет новых непрочитанных сообщений. Скорый Москва-Россия (2014) HDRip | Лицензия

2546 | 136

1.37 ГБ




Вы не можете начинать темы
Вы не можете отвечать на сообщения
Вы не можете редактировать свои сообщения
Вы не можете удалять свои сообщения
Вы не можете добавлять вложения

Перейти:  
Для Мосгорсуда, Роскомнадзора и рекламодателей: mosgorsud-torrent[собачка]yandex.ru
 Вход
ppkBB3cker v.2 © 2008-2014 @ PPK
[ Time : 0.036s | 19 Queries | GZIP : Off ]

cron