img image001 image001 image001 image001 image001 image001 image001 image001 image001 image001 image001 image001 image001 image001 image001

Planets Sun Sun Sun
Статистика раздачи
Автор: Nickolas3434 | Размер: 1.46 ГБ | Добавлен: 11 июн 2014
Раздают: 1233    Качают: 107
Скачать торрент
Скачать торрент
Описание торрента

СообщениеДобавлено: 11 июн 2014 

Информация о фильме
Название: Скорый «Москва-Россия»
Год выхода: 2014
Жанр: Комедия, приключения
Режиссёр: Игорь Волошин
В ролях: Сергей Светлаков, Маргарита Левиева, Павел Деревянко, Майкл Мэдсен, Ингеборга Дапкунайте, Спартак Кондауров, Максим Голополосов, Иван Ургант, Виктор Проскурин, Ольга Симонова

О фильме:
Это история про парня, который душу готов продать, лишь бы набрать миллион просмотров для своего видео на YouTube. На пути к своей цели он оказывается в скором поезде «Москва - Владивосток», где сталкивается с американской актрисой, страдающей аэрофобией. В пути незнакомцев ожидают такие приключения, что они отстают от поезда, который пытаются догнать, продвигаясь по нашей непредсказуемой и сказочной России-матушке… Ведь каждому из них нужно оказаться во Владивостоке ровно через 7 дней - по причинам, которые они тщательно скрывают друг от друга.



Страна: Россия
Студия: Bulldozerfilms
Продолжительность: 01:24:40
Перевод: Не требуется

Файл
Кодек: XviD
Качество: BDRip (Исходник: Blu-Ray Remux (1080i) от ExKinoRay)
Видео: XviD, 704x304 (2.35:1), 25 кадр/с, 2014 Кбит/с
Звук: Русский, Dolby AC3, 48000 Гц, 448 Кбит/с, 6 каналов (5.1)
Субтитры: Нет



Автор рипа - ivandubskoj

General
Complete name : Skoryy.Moskva.Rossiya.2014.BDRip.avi
Format : AVI
Format/Info : Audio Video Interleave
File size : 1.46 GiB
Duration : 1h 24mn
Overall bit rate : 2 470 Kbps
Movie name : Скорый «Москва-Россия» (2014) BDRip
Genre : Комедия, приключения
Recorded date : 11.06.2014
Writing application : VirtualDubMod 1.5.10.3 | www.virtualdub-fr.org || (build 2550/release)
Writing library : VirtualDubMod build 2550/release
Copyright : rip by ivandubskoj
Video
ID : 0
Format : MPEG-4 Visual
Format profile : Advanced Simple@L5
Format settings, BVOP : 1
Format settings, QPel : No
Format settings, GMC : No warppoints
Format settings, Matrix : Custom
Codec ID : XVID
Codec ID/Hint : XviD
Duration : 1h 24mn
Bit rate : 2 014 Kbps
Width : 704 pixels
Height : 304 pixels
Display aspect ratio : 2.35:1
Frame rate : 25.000 fps
Color space : YUV
Chroma subsampling : 4:2:0
Bit depth : 8 bits
Scan type : Progressive
Compression mode : Lossy
Bits/(Pixel*Frame) : 0.376
Stream size : 1.19 GiB (82%)
Writing library : XviD 73
Audio
ID : 1
Format : AC-3
Format/Info : Audio Coding 3
Mode extension : CM (complete main)
Codec ID : 2000
Duration : 1h 24mn
Bit rate mode : Constant
Bit rate : 448 Kbps
Channel(s) : 6 channels
Channel positions : Front: L C R, Side: L R, LFE
Sampling rate : 48.0 KHz
Bit depth : 16 bits
Compression mode : Lossy
Stream size : 271 MiB (18%)
Alignment : Split accross interleaves
Interleave, duration : 64 ms (1.60 video frames)
Interleave, preload duration : 500 ms
Title : Russian



   Похожие торренты   Торрент   Размер 
В этой теме нет новых непрочитанных сообщений. Скорый «Москва-Россия» (2014) DVDRip от ivandubskoj

473 | 16

701.25 МБ

В этой теме нет новых непрочитанных сообщений. Скорый «Москва-Россия» (2014) BDRip-AVC от HELLYWOOD | Лицензия

979 | 44

1.46 ГБ

В этой теме нет новых непрочитанных сообщений. Скорый «Москва-Россия» (2014) BDRip-AVC от Leonardo and Scarabey

349 | 27

1.78 ГБ

В этой теме нет новых непрочитанных сообщений. Скорый Москва-Россия (2014) BDRip 1080p | Лицензия

393 | 32

7.53 ГБ

В этой теме нет новых непрочитанных сообщений. Скорый Москва-Россия (2014) BDRip 720p | Лицензия

1462 | 233

4.17 ГБ

В этой теме нет новых непрочитанных сообщений. Скорый «Москва-Россия» (2014) BDRip от HQCLUB | Лицензия

6971 | 361

1.45 ГБ

В этой теме нет новых непрочитанных сообщений. Скорый Москва-Россия (2014) BDRip 1080p от MediaClub | Лицензия

473 | 123

7.47 ГБ




Вы не можете начинать темы
Вы не можете отвечать на сообщения
Вы не можете редактировать свои сообщения
Вы не можете удалять свои сообщения
Вы не можете добавлять вложения

Перейти:  
Для Мосгорсуда, Роскомнадзора и рекламодателей: mosgorsud-torrent[собачка]yandex.ru
 Вход
ppkBB3cker v.2 © 2008-2014 @ PPK
[ Time : 0.022s | 17 Queries | GZIP : On ]

Торрент трекер RUTOR.IN, Не можете зайти на rutor.org? Какой новый адрес рутор? Какое зеркало рутор? Не работает rutor.org и зеркала? Тогда наш торрент специально для вас. Rutor.in неофициальное зеркало rutor. В случае если у Вас заблокирован rutor или вдруг Вы не можете на него зайти, то Вы без труда сможете скачать бесплатно и без рекламы последние новинки кино, игр, сериалов и прочего у нас, на Rutor.in. Не нужно использовать прокси, чтобы зайти на рутор, достаточно воспользоваться нашим ресурсом. Все новые фильмы, игры, сериалы, книги и музыка за 2013 и 2014 годы через торрент бесплатно. Скачивайте фильмы в хорошем качестве, игры для пк, xbox, playstation без регистрации. У нас вы найдете новые Зарубежные сериалы и Русские сериалы 2013, 2014, 2015 годов. Оставайтесь с нами, качайте любимые фильмы, игры, сериалы, книги и музыку.