img image001 image001 image001 image001 image001 image001 image001 image001 image001 image001 image001 image001 image001 image001 image001

Planets Sun Sun Sun
Статистика раздачи
Автор: Nickolas3434 | Размер: 2.19 ГБ | Добавлен: 11 июн 2014
Раздают: 447    Качают: 136
Скачать торрент
Скачать торрент
Описание торрента

СообщениеДобавлено: 11 июн 2014 

Страна: СССР
Производство: Студия Горького

Жанр: комедия
Год выпуска: 1963
Продолжительность: 01:24:25

Перевод: не требуется
Оригинальная аудиодорожка: русский
Cубтитры: нет

Режиссер: Генрих Оганисян

В ролях:
Андрей Миронов, Евгений Жариков, Геннадий Нилов, Наталья Кустинская, Наталья Фатеева...

Описание:
Трое друзей из Москвы живут «дикарями» в замечательном месте с песчаным пляжем, пресной водой, тенью и дровами у самого моря. Отдыхают. Внезапно приезжают две незнакомки и заявляют, что это их старое место. Более того, они доказывают свое первенство, выкопав бутылку с письмом. Но уезжать ребята отказываются. Дамы же от своего места отказываться тоже не собираются и ставят палатку. Начинается тихая война, перерастающая со временем в любовь.
Один из тех фильмов, которые можно пересматривать не один раз.







Исходник: HDTVRip 1080i
Тип релиза: HDTVRip 720p
Контейнер: MKV

Видео: 1280x538 (2,40:1), 25 fps, H264 ~ 3322 kbps avg, 0.193 bit/pixel
Аудио: 48 kHz, Dolby Digital AC3 5.1, 384 kbps

Раздача от:
Общее
Полное имя : Tri.plyus.dva.1963.HDTVRip720p_[New-team]_by_AVP_Studio.mkv
Формат : Matroska
Версия формата : Version 2
Размер файла : 2,19 Гбайт
Продолжительность : 1 ч. 24 м.
Общий поток : 3708 Кбит/сек
Дата кодирования : UTC 2014-06-10 23:21:17
Программа кодирования : mkvmerge v6.1.0 ('Old Devil') built on Mar 4 2013 09:10:42
Библиотека кодирования : libebml v1.3.0 + libmatroska v1.4.0

Видео
Идентификатор : 1
Формат : AVC
Формат/Информация : Advanced Video Codec
Профиль формата : High@L4.1
Параметр CABAC формата : Да
Параметр ReFrames формата : 6 кадров
Идентификатор кодека : V_MPEG4/ISO/AVC
Продолжительность : 1 ч. 24 м.
Битрейт : 3322 Кбит/сек
Ширина : 1280 пикселей
Высота : 538 пикселей
Соотношение сторон : 2,40:1
Режим частоты кадров : Постоянный
Частота кадров : 25,000 кадров/сек
Цветовое пространство : YUV
Субдискретизация насыщенности : 4:2:0
Битовая глубина : 8 бит
Тип развёртки : Прогрессивная
Бит/(Пиксели*Кадры) : 0.193
Размер потока : 1,92 Гбайт (88%)
Библиотека кодирования : x264 core 138 r2356 a1d3d17
Настройки программы : cabac=1 / ref=6 / deblock=1:-3:-3 / analyse=0x3:0x113 / me=umh / subme=10 / psy=1 / psy_rd=1.00:0.05 / mixed_ref=1 / me_range=32 / chroma_me=1 / trellis=2 / 8x8dct=1 / cqm=0 / deadzone=21,11 / fast_pskip=0 / chroma_qp_offset=-3 / threads=6 / lookahead_threads=1 / sliced_threads=0 / nr=0 / decimate=0 / interlaced=0 / bluray_compat=0 / constrained_intra=0 / bframes=8 / b_pyramid=2 / b_adapt=2 / b_bias=0 / direct=3 / weightb=1 / open_gop=0 / weightp=2 / keyint=250 / keyint_min=25 / scenecut=40 / intra_refresh=0 / rc_lookahead=40 / rc=2pass / mbtree=1 / bitrate=3322 / ratetol=1.0 / qcomp=0.60 / qpmin=10 / qpmax=51 / qpstep=4 / cplxblur=20.0 / qblur=0.5 / vbv_maxrate=50000 / vbv_bufsize=50000 / nal_hrd=none / ip_ratio=1.40 / aq=1:0.80
Default : Да
Forced : Нет

Аудио
Идентификатор : 2
Формат : AC-3
Формат/Информация : Audio Coding 3
Расширение режима : CM (complete main)
Параметр Endianness формата : Big
Идентификатор кодека : A_AC3
Продолжительность : 1 ч. 24 м.
Вид битрейта : Постоянный
Битрейт : 384 Кбит/сек
Каналы : 6 каналов
Расположение каналов : Front: L C R, Side: L R, LFE
Частота : 48,0 КГц
Битовая глубина : 16 бит
Метод сжатия : С потерями
Размер потока : 232 Мбайт (10%)
Default : Да
Forced : Нет



Фильм "Три плюс два" был снят в двух версиях - для показа в кинотеатрах и по телевидению. То, что мы видели - это урезанная версия фильма - для показа по ТВ. Настоящий фильм - это широкоэкранная картина, совершенно другой монтаж, который снимался совместно с Ригой. Но он был смыт с пленки на Рижской киностудии, по понятным только им причинам.
Фактически было снято два разных фильма. Почему разных и как это получилось?
Все знают, что в процессе съемок фильма бывают дубли и они реально чем-то отличаются друг от друга.
Теперь о фильме. Сначала снимали сцену с актерами для обычного формата, потом актеры играли вновь эту сцену и ее снимали уже другой аппаратурой для широкоэкранного формата. Теперь вы понимаете, что сыграть ту же сцену зеркально невозможно. В итоге метраж широкоэкранного фильма был 2765 метров
(у фильма в обычном варианте - 2432 метра), что означает по времени на 10 минут длиннее.



   Похожие торренты   Торрент   Размер 
В этой теме нет новых непрочитанных сообщений. Три плюс два (1963) HDTVRip от New-Team | Широкоформатная версия

177 | 28

1.46 ГБ

В этой теме нет новых непрочитанных сообщений. Три плюс два (1963) HDTVRip-AVC от New-Team | Широкоформатная версия

101 | 28

1.46 ГБ

В этой теме нет новых непрочитанных сообщений. Три плюс два (1963) HDTVRip от New-Team | Широкоформатная версия

927 | 50

744.87 МБ

В этой теме нет новых непрочитанных сообщений. Три плюс два (Широкоэкранная полная версия) (1963) HDTVRip от GeneralFilm

601 | 30

1.33 ГБ

В этой теме нет новых непрочитанных сообщений. Три плюс два (1963) BDRip 720p от MediaClub | Широкоэкранная версия

125 | 12

4.2 ГБ

В этой теме нет новых непрочитанных сообщений. Три плюс два (1963) BDRip | Широкоэкранная версия

193 | 5

1.46 ГБ

В этой теме нет новых непрочитанных сообщений. Три плюс два (1963) BDRip 1080p | Широкоэкранная версия

359 | 27

4.3 ГБ




Вы не можете начинать темы
Вы не можете отвечать на сообщения
Вы не можете редактировать свои сообщения
Вы не можете удалять свои сообщения
Вы не можете добавлять вложения

Перейти:  
Для Мосгорсуда, Роскомнадзора и рекламодателей: mosgorsud-torrent[собачка]yandex.ru
 Вход
ppkBB3cker v.2 © 2008-2014 @ PPK
[ Time : 0.019s | 15 Queries | GZIP : Off ]

Торрент трекер RUTOR.IN, Не можете зайти на rutor.org? Какой новый адрес рутор? Какое зеркало рутор? Не работает rutor.org и зеркала? Тогда наш торрент специально для вас. Rutor.in неофициальное зеркало rutor. В случае если у Вас заблокирован rutor или вдруг Вы не можете на него зайти, то Вы без труда сможете скачать бесплатно и без рекламы последние новинки кино, игр, сериалов и прочего у нас, на Rutor.in. Не нужно использовать прокси, чтобы зайти на рутор, достаточно воспользоваться нашим ресурсом. Все новые фильмы, игры, сериалы, книги и музыка за 2013 и 2014 годы через торрент бесплатно. Скачивайте фильмы в хорошем качестве, игры для пк, xbox, playstation без регистрации. У нас вы найдете новые Зарубежные сериалы и Русские сериалы 2013, 2014, 2015 годов. Оставайтесь с нами, качайте любимые фильмы, игры, сериалы, книги и музыку.