img image001 image001 image001 image001 image001 image001 image001 image001 image001 image001 image001 image001 image001 image001 image001

Planets Sun Sun Sun
Статистика раздачи
Автор: Nickolas3434 | Размер: 2.33 ГБ | Добавлен: 12 июн 2014
Раздают: 351    Качают: 82
Скачать торрент
Скачать торрент
Описание торрента

СообщениеДобавлено: 12 июн 2014 

Информация о фильме
Оригинальное название: Кухня в Парижe
Год выпуска: 2014
Жанр: Комедия
Выпущено: Россия, YBW Group, Yellow, Black & White, СТС
Режиссер: Дмитрий Дьяченко (II)
В ролях: Дмитрий Назаров, Дмитрий Нагиев, Елена Подкаминская, Марина Могилевская, Марк Богатырёв, Виктор Хориняк, Ольга Кузьмина, Екатерина Кузнецова, Валерия Федорович, Жанныл Асанбекова, Елена Чернявская, Алексей Колган, Сергей Лавыгин, Сергей Епишев, Михаил Тарабукин, Никита Тарасов, Юлия Такшина, Виктория Лукина, Виталий Щанников, Сергей Беляев, Роман Индык, Евгения Храповицкая, Ольга Новосад, Серафима Низовская, Александр Карпиловский, Мария Горбань, Ирина Бразговка

О фильме: Модный столичный ресторан «Клод Моне» процветает. Именно здесь, в родном заведении Вика и Максим хотят отпраздновать долгожданную свадьбу. Но планы меняются, когда в ресторане назначают переговоры Президентов России и Франции! Команда ресторана терпит фиаско и вынуждена отправиться в «изгнание» — в Париж. Там Шеф с Максом сталкиваются с опасными конкурентами: Шеф — с ближайшим родственником, а Максим — с красавцем Николя, который кружит Вике голову не хуже искристого шампанского! И это еще не все вызовы, которые бросает им «Город любви», ведь надо постараться спасти репутацию, накормить Президентов и преодолеть миллион препятствий à la française…



Файл
Качество: HDRip (AVC)
Видео: MPEG-4 AVC, 2679 Кбит/с, 1024x426, 24 кадр/с
Аудио: AC3, 6 ch, 448 Кбит/с
Продолжительность: 01:46:42
Язык: Русский

General
Unique ID : 247591915721286837641054197362469938951 (0xBA4477EC2E47A635A05749C9D24CA707)
Complete name : C:Kuhnia.v.Parizhe.2014.O.HDRip.AVC.ExKinoRay.mkv
Format : Matroska
Format version : Version 2
File size : 2.33 GiB
Duration : 1h 46mn
Overall bit rate : 3 127 Kbps
Movie name : Kuhnia v Parizhe from ExKinoRay
Encoded date : UTC 2014-06-12 05:20:13
Writing application : mkvmerge v4.9.1 ('Ich will') built on Jul 11 2011 23:53:15
Writing library : libebml v1.2.1 + libmatroska v1.1.1

Video
ID : 1
Format : AVC
Format/Info : Advanced Video Codec
Format profile : High@L4.1
Format settings, CABAC : Yes
Format settings, ReFrames : 9 frames
Codec ID : V_MPEG4/ISO/AVC
Duration : 1h 46mn
Bit rate : 2 679 Kbps
Width : 1 024 pixels
Height : 426 pixels
Display aspect ratio : 2.40:1
Frame rate mode : Constant
Frame rate : 24.000 fps
Color space : YUV
Chroma subsampling : 4:2:0
Bit depth : 8 bits
Scan type : Progressive
Bits/(Pixel*Frame) : 0.256
Stream size : 1.95 GiB (84%)
Title : Enigma-Vladislav71
Writing library : x264 core 116 r2044 392e762
Encoding settings : cabac=1 / ref=9 / deblock=1:-2:-2 / analyse=0x3:0x113 / me=umh / subme=10 / psy=1 / psy_rd=1.00:0.20 / mixed_ref=1 / me_range=32 / chroma_me=1 / trellis=2 / 8x8dct=1 / cqm=0 / deadzone=21,11 / fast_pskip=0 / chroma_qp_offset=-3 / threads=12 / sliced_threads=0 / nr=0 / decimate=0 / interlaced=0 / bluray_compat=0 / constrained_intra=0 / bframes=8 / b_pyramid=2 / b_adapt=2 / b_bias=0 / direct=3 / weightb=1 / open_gop=0 / weightp=2 / keyint=240 / keyint_min=24 / scenecut=40 / intra_refresh=0 / rc=2pass / mbtree=0 / bitrate=2679 / ratetol=1.0 / qcomp=0.60 / qpmin=0 / qpmax=69 / qpstep=4 / cplxblur=20.0 / qblur=0.5 / ip_ratio=1.40 / pb_ratio=1.30 / aq=1:1.00
Default : Yes
Forced : No

Audio
ID : 2
Format : AC-3
Format/Info : Audio Coding 3
Mode extension : CM (complete main)
Format settings, Endianness : Big
Codec ID : A_AC3
Duration : 1h 46mn
Bit rate mode : Constant
Bit rate : 448 Kbps
Channel(s) : 6 channels
Channel positions : Front: L C R, Side: L R, LFE
Sampling rate : 48.0 KHz
Bit depth : 16 bits
Compression mode : Lossy
Stream size : 342 MiB (14%)
Language : Russian
Default : Yes
Forced : No

Menu
00:00:00.000 : ru:
00:06:37.500 : ru:
00:17:28.333 : ru:
00:28:03.750 : ru:
00:36:58.916 : ru:
00:47:06.583 : ru:
00:56:38.291 : ru:
01:05:31.666 : ru:
01:14:49.541 : ru:
01:24:20.750 : ru:
01:34:23.000 : ru:
01:41:27.208 : ru:




Релиз от:

Авторы релиза:



   Похожие торренты   Торрент   Размер 
В этой теме нет новых непрочитанных сообщений. Кухня в Париже (2014) HDRip | Лицензия

6649 | 498

1.46 ГБ

В этой теме нет новых непрочитанных сообщений. Кухня в Париже (2014) HDRip | Лицензия

452 | 74

744.8 МБ

В этой теме нет новых непрочитанных сообщений. Кухня в Париже (2014) HDRip-AVC | Лицензия

568 | 49

1.36 ГБ

В этой теме нет новых непрочитанных сообщений. Кухня в Париже (2014) HDRip от Scarabey | Лицензия

283 | 13

745.95 МБ

В этой теме нет новых непрочитанных сообщений. Кухня в Париже (2014) HDRip от Scarabey | Лицензия

1424 | 54

1.45 ГБ

В этой теме нет новых непрочитанных сообщений. Кухня в Париже (2014) BDRemux 1080р от ExKinoRay

41 | 43

19.89 ГБ

В этой теме нет новых непрочитанных сообщений. Кухня в Париже (2014) WEB-DLRip-AVC от ExKinoRay | iTunes Russian

354 | 3

2.19 ГБ




Вы не можете начинать темы
Вы не можете отвечать на сообщения
Вы не можете редактировать свои сообщения
Вы не можете удалять свои сообщения
Вы не можете добавлять вложения

Перейти:  
Для Мосгорсуда, Роскомнадзора и рекламодателей: mosgorsud-torrent[собачка]yandex.ru
 Вход
ppkBB3cker v.2 © 2008-2014 @ PPK
[ Time : 0.057s | 15 Queries | GZIP : Off ]

Торрент трекер RUTOR.IN, Не можете зайти на rutor.org? Какой новый адрес рутор? Какое зеркало рутор? Не работает rutor.org и зеркала? Тогда наш торрент специально для вас. Rutor.in неофициальное зеркало rutor. В случае если у Вас заблокирован rutor или вдруг Вы не можете на него зайти, то Вы без труда сможете скачать бесплатно и без рекламы последние новинки кино, игр, сериалов и прочего у нас, на Rutor.in. Не нужно использовать прокси, чтобы зайти на рутор, достаточно воспользоваться нашим ресурсом. Все новые фильмы, игры, сериалы, книги и музыка за 2013 и 2014 годы через торрент бесплатно. Скачивайте фильмы в хорошем качестве, игры для пк, xbox, playstation без регистрации. У нас вы найдете новые Зарубежные сериалы и Русские сериалы 2013, 2014, 2015 годов. Оставайтесь с нами, качайте любимые фильмы, игры, сериалы, книги и музыку.
cron