img image001 image001 image001 image001 image001 image001 image001 image001 image001 image001 image001 image001 image001 image001 image001

Planets Sun Sun Sun
Статистика раздачи
Автор: Nickolas3434 | Размер: 7.03 ГБ | Добавлен: 13 июн 2014
Раздают: 522    Качают: 52
Скачать торрент
Скачать торрент
Описание торрента

СообщениеДобавлено: 13 июн 2014 

Информация о фильме
Оригинальное название: 22 минуты
Год выпуска: 2014
Жанр: Боевик
Режиссер: Василий Сериков
В ролях: Макар Запорожский, Денис Никифоров, Виктор Сухоруков, Екатерина Маликова, Гаэль Камилинди, Александр Галибин, Владислав Дёмин, Ибрагим Тооре, Софья Козко, Иван Породнов

Описание: Морпех — первогодок Саня Ежов оказывается среди пиратов на захваченном танкере. Он знает — товарищи не бросят. Ему нужно выжить и помочь своим, когда начнется штурм. Фильм основан на реальных событиях 5 мая 2010 года, когда морские пехотинцы БПК «Маршал Шапошников» освободили захваченный в водах Аденского залива российский танкер «Московский университет». У них было только 22 минуты без права на ошибку…



Выпущено: Россия / «Централ Партнершип»
Продолжительность: 01:22:48

Файл
Качество: BDRip 1080p
Видео: MPEG-4 AVC, 10.0 Мбит/с, 1920x800, 24.000 кадр/с
Аудио #1: Русский ( DTS, 6 ch, 1509 Кбит/с)
Аудио #2: Русский (AC3, 6 ch, 640 Кбит/с)

Семпл




Общее
Уникальный идентификатор : 240551472895098341803403024023553709509 (0xB4F8874A907C7ADBB8DAE3A123AA15C5)
Полное имя : D:Mои раздачи22.minuty.2014.BDRip.1080p-MediaClub.mkv
Формат : Matroska
Версия формата : Version 4 / Version 2
Размер файла : 7,03 Гбайт
Продолжительность : 1 ч. 22 м.
Общий поток : 12,1 Мбит/сек
Название фильма : -=MediaClub-kaspr=-
Дата кодирования : UTC 2014-06-12 17:19:43
Программа кодирования : mkvmerge v6.9.1 ('Blue Panther') 64bit built on Apr 18 2014 18:23:38
Библиотека кодирования : libebml v1.3.0 + libmatroska v1.4.1

Видео
Идентификатор : 1
Формат : AVC
Формат/Информация : Advanced Video Codec
Профиль формата : High@L4.1
Параметр CABAC формата : Да
Параметр ReFrames формата : 5 кадров
Идентификатор кодека : V_MPEG4/ISO/AVC
Продолжительность : 1 ч. 22 м.
Битрейт : 10000 Кбит/сек
Ширина : 1920 пикселей
Высота : 800 пикселей
Соотношение сторон : 2,40:1
Режим частоты кадров : Постоянный
Частота кадров : 24,000 кадра/сек
Цветовое пространство : YUV
Субдискретизация насыщенности : 4:2:0
Битовая глубина : 8 бит
Тип развёртки : Прогрессивная
Бит/(Пиксели*Кадры) : 0.271
Размер потока : 5,64 Гбайт (80%)
Заголовок : -=MediaClub-kaspr=-
Библиотека кодирования : x264 core 142 r2431+42 c69a006 tMod [8-bit@4:2:0 X86_64]
Настройки программы : cabac=1 / ref=5 / deblock=1:-3:-3 / analyse=0x3:0x113 / me=umh / subme=11 / psy=1 / fade_compensate=0.00 / psy_rd=1.00:0.20 / mixed_ref=1 / me_range=32 / chroma_me=1 / trellis=2 / 8x8dct=1 / cqm=0 / deadzone=21,11 / fast_pskip=0 / chroma_qp_offset=-3 / threads=12 / lookahead_threads=2 / sliced_threads=0 / nr=0 / decimate=0 / interlaced=0 / bluray_compat=0 / constrained_intra=0 / fgo=0 / bframes=8 / b_pyramid=2 / b_adapt=2 / b_bias=0 / direct=3 / weightb=1 / open_gop=0 / weightp=2 / keyint=240 / keyint_min=24 / scenecut=40 / intra_refresh=0 / rc=2pass / mbtree=0 / bitrate=10000 / ratetol=1.0 / qcomp=0.60 / qpmin=0:0:0 / qpmax=69:69:69 / qpstep=4 / cplxblur=20.0 / qblur=0.5 / ip_ratio=1.40 / pb_ratio=1.30 / aq=4:0.80 / aq-sensitivity=10.00 / aq-factor=1.00:1.00:1.00 / aq2=0 / aq3=0
Default : Да
Forced : Да

Аудио #1
Идентификатор : 2
Формат : DTS
Формат/Информация : Digital Theater Systems
Режим : 16
Параметр Endianness формата : Big
Идентификатор кодека : A_DTS
Продолжительность : 1 ч. 22 м.
Вид битрейта : Постоянный
Битрейт : 1509 Кбит/сек
Каналы : 6 каналов
Расположение каналов : Front: L C R, Side: L R, LFE
Частота : 48,0 КГц
Битовая глубина : 16 бит
Метод сжатия : С потерями
Размер потока : 894 Мбайт (12%)
Заголовок : DTS
Язык : Russian
Default : Да
Forced : Да

Аудио #2
Идентификатор : 3
Формат : AC-3
Формат/Информация : Audio Coding 3
Расширение режима : CM (complete main)
Параметр Endianness формата : Big
Идентификатор кодека : A_AC3
Продолжительность : 1 ч. 22 м.
Вид битрейта : Постоянный
Битрейт : 640 Кбит/сек
Каналы : 6 каналов
Расположение каналов : Front: L C R, Side: L R, LFE
Частота : 48,0 КГц
Битовая глубина : 16 бит
Метод сжатия : С потерями
Размер потока : 379 Мбайт (5%)
Заголовок : AC3
Язык : Russian
Default : Нет
Forced : Нет

Меню
00:00:00.000 : :ru Chapter 01
00:00:04.000 : :ru Chapter 02
00:08:16.166 : :ru Chapter 03
00:19:07.791 : :ru Chapter 04
00:30:32.583 : :ru Chapter 05
00:39:31.166 : :ru Chapter 06
00:54:49.500 : :ru Chapter 07
01:01:45.375 : :ru Chapter 08
01:11:12.541 : :ru Chapter 09


Релиз: |



   Похожие торренты   Торрент   Размер 
В этой теме нет новых непрочитанных сообщений. 22 минуты (2014) BDRip 1080p | Лицензия

182 | 25

8.11 ГБ

В этой теме нет новых непрочитанных сообщений. 22 минуты (2014) BDRip-AVC от RG WazZzuP | Лицензия

276 | 36

738.42 МБ

В этой теме нет новых непрочитанных сообщений. 22 минуты (2014) BDRip от HQCLUB | Лицензия

1417 | 71

1.45 ГБ

В этой теме нет новых непрочитанных сообщений. 22 минуты (2014) BDRip от RG WazZzuP | Лицензия

264 | 35

742.54 МБ

В этой теме нет новых непрочитанных сообщений. 22 минуты (2014) BDRip-AVC от HELLYWOOD | Лицензия

479 | 26

1.46 ГБ

В этой теме нет новых непрочитанных сообщений. 22 минуты (2014) BDRip 720p | Лицензия

874 | 165

4.69 ГБ

В этой теме нет новых непрочитанных сообщений. 22 минуты (2014) BDRip 720p от HELLYWOOD | Лицензия

340 | 49

4.37 ГБ




Вы не можете начинать темы
Вы не можете отвечать на сообщения
Вы не можете редактировать свои сообщения
Вы не можете удалять свои сообщения
Вы не можете добавлять вложения

Перейти:  
Для Мосгорсуда, Роскомнадзора и рекламодателей: mosgorsud-torrent[собачка]yandex.ru
 Вход
ppkBB3cker v.2 © 2008-2014 @ PPK
[ Time : 0.034s | 15 Queries | GZIP : Off ]

Торрент трекер RUTOR.IN, Не можете зайти на rutor.org? Какой новый адрес рутор? Какое зеркало рутор? Не работает rutor.org и зеркала? Тогда наш торрент специально для вас. Rutor.in неофициальное зеркало rutor. В случае если у Вас заблокирован rutor или вдруг Вы не можете на него зайти, то Вы без труда сможете скачать бесплатно и без рекламы последние новинки кино, игр, сериалов и прочего у нас, на Rutor.in. Не нужно использовать прокси, чтобы зайти на рутор, достаточно воспользоваться нашим ресурсом. Все новые фильмы, игры, сериалы, книги и музыка за 2013 и 2014 годы через торрент бесплатно. Скачивайте фильмы в хорошем качестве, игры для пк, xbox, playstation без регистрации. У нас вы найдете новые Зарубежные сериалы и Русские сериалы 2013, 2014, 2015 годов. Оставайтесь с нами, качайте любимые фильмы, игры, сериалы, книги и музыку.