img image001 image001 image001 image001 image001 image001 image001 image001 image001 image001 image001 image001 image001 image001 image001

Planets Sun Sun Sun
Статистика раздачи
Автор: Nickolas3434 | Размер: 1.46 ГБ | Добавлен: 12 июн 2014
Раздают: 48    Качают: 17
Скачать торрент
Скачать торрент
Описание торрента

СообщениеДобавлено: 12 июн 2014 

Страна: Россия
Производство: Дельфин, Gold Vision, MNVK TV6

Жанр: комедия, приключения, семейный
Год выпуска: 1997
Продолжительность: 01:31:42

Перевод: не требуется
Оригинальная аудиодорожка: русский
Cубтитры: нет

Режиссер: Тигран Кеосаян

В ролях:
Юля Чернова, Александр Збруев, Вера Глаголева, Ольга Волкова, Борис Сичкин, Валерий Гаркалин, Армен Джигарханян, Спартак Мишулин, Нина Русланова, Анатолий Журавлёв, Игорь Воробьев, Георгий Мартиросьян, Сергей Габриэлян, Владимир Прохоров, Владимир Долинский, Андрей Невраев, Фёдор Смирнов, Олег Вершинин, Роман Мадянов, Владимир Гранов, Павел Сиротин, Валерий Ненашев, Леонид Громов, Валентин Никитин, Геннадий Шишков, Илья Бородин, Алексей Кузин...

Описание:
«Бедная Саша» — это в первую очередь детектив! «Новая русская» девочка хочет ограбить банк своей «новой русской» мамы, для того, чтобы она перестала быть банкиршей, а стала просто любимой мамочкой. «Бедная Саша» — это, конечно же, новогодняя сказка о том, как сильно люди нуждаются в любви: девочке недостает родительского тепла, ее мама неуютно чувствует себя без любимого человека. А главный герой, талантливый и благородный, чтобы вновь почувствовать себя мужчиной, должен защитить нежных и трогательных женщин. Тем более, что они — маленькая и взрослая — так похожи на несбыточную мечту…





Исходник: DVB
Тип релиза: SATRip
Контейнер: AVI

Видео: 704x528 (4:3), 25 fps, XviD ~ 2073 kbps avg, 0.223 bit/pixel
Аудио: 48 kHz, Dolby Digital AC3 2.0, 192 kbps

Раздача от:
Общее
Полное имя : Bednaya.Sasha.1997.SATRip_[New-team]_by_AVP_Studio.avi
Формат : AVI
Формат/Информация : Audio Video Interleave
Размер файла : 1,46 Гбайт
Продолжительность : 1 ч. 31 м.
Общий поток : 2275 Кбит/сек
Программа кодирования : VirtualDubModRus 1.5.10.2 (build 2542/release)
Библиотека кодирования : VirtualDubMod build 2542/release

Видео
Идентификатор : 0
Формат : MPEG-4 Visual
Профиль формата : Advanced Simple@L5
Параметр BVOP формата : 1
Параметр QPel формата : Нет
Параметр GMC формата : Без точки перехода
Параметр матрицы формата : Выборочная
Идентификатор кодека : XVID
Идентификатор кодека/Подсказка : XviD
Продолжительность : 1 ч. 31 м.
Битрейт : 2073 Кбит/сек
Ширина : 704 пикселя
Высота : 528 пикселей
Соотношение сторон : 4:3
Частота кадров : 25,000 кадров/сек
Цветовое пространство : YUV
Субдискретизация насыщенности : 4:2:0
Битовая глубина : 8 бит
Тип развёртки : Прогрессивная
Метод сжатия : С потерями
Бит/(Пиксели*Кадры) : 0.223
Размер потока : 1,33 Гбайт (91%)
Библиотека кодирования : XviD 73

Аудио
Идентификатор : 1
Формат : MPEG Audio
Версия формата : Version 1
Профиль формата : Layer 2
Идентификатор кодека : 50
Продолжительность : 1 ч. 31 м.
Вид битрейта : Постоянный
Битрейт : 192 Кбит/сек
Каналы : 2 канала
Частота : 48,0 КГц
Метод сжатия : С потерями
Размер потока : 126 Мбайт (8%)
Выравнивание : Соединение по промежуткам
Продолжительность промежутка : 40 мс. (1,00 видеокадр)
Время предзагрузки промежутка : 504 мс





   Похожие торренты   Торрент   Размер 
В этой теме нет новых непрочитанных сообщений. Бедная Саша (1997) SATRip-AVC от New-Team

707 | 29

1.46 ГБ

В этой теме нет новых непрочитанных сообщений. Бедная Саша (1997) SATRip от New-Team

35 | 12

745 МБ

В этой теме нет новых непрочитанных сообщений. Бедная Саша (1997) DVDRip | КПК

43 | 9

356.77 МБ

В этой теме нет новых непрочитанных сообщений. Бедная Саша (1997) DVDRip

444 | 48

1.44 ГБ

В этой теме нет новых непрочитанных сообщений. Саша добрый, Саша злой [01-18 из 20] (2016) SATRip-AVC от Korsar

6 | 3

9.26 ГБ

В этой теме нет новых непрочитанных сообщений. Саша добрый, Саша злой [01-16 из 20] (2016) SATRip-AVC от Korsar

12 | 6

8.2 ГБ

В этой теме нет новых непрочитанных сообщений. Саша добрый, Саша злой [01-03 из 12] (2016) SATRip-AVC от Korsar

15 | 2

1.54 ГБ




Вы не можете начинать темы
Вы не можете отвечать на сообщения
Вы не можете редактировать свои сообщения
Вы не можете удалять свои сообщения
Вы не можете добавлять вложения

Перейти:  
Для Мосгорсуда, Роскомнадзора и рекламодателей: mosgorsud-torrent[собачка]yandex.ru
 Вход
ppkBB3cker v.2 © 2008-2014 @ PPK
[ Time : 0.045s | 17 Queries | GZIP : Off ]

Торрент трекер RUTOR.IN, Не можете зайти на rutor.org? Какой новый адрес рутор? Какое зеркало рутор? Не работает rutor.org и зеркала? Тогда наш торрент специально для вас. Rutor.in неофициальное зеркало rutor. В случае если у Вас заблокирован rutor или вдруг Вы не можете на него зайти, то Вы без труда сможете скачать бесплатно и без рекламы последние новинки кино, игр, сериалов и прочего у нас, на Rutor.in. Не нужно использовать прокси, чтобы зайти на рутор, достаточно воспользоваться нашим ресурсом. Все новые фильмы, игры, сериалы, книги и музыка за 2013 и 2014 годы через торрент бесплатно. Скачивайте фильмы в хорошем качестве, игры для пк, xbox, playstation без регистрации. У нас вы найдете новые Зарубежные сериалы и Русские сериалы 2013, 2014, 2015 годов. Оставайтесь с нами, качайте любимые фильмы, игры, сериалы, книги и музыку.
cron