img image001 image001 image001 image001 image001 image001 image001 image001 image001 image001 image001 image001 image001 image001 image001

Planets Sun Sun Sun
Статистика раздачи
Автор: Nickolas3434 | Размер: 7.56 ГБ | Добавлен: 14 июн 2014
Раздают: 654    Качают: 87
Скачать торрент
Скачать торрент
Описание торрента

СообщениеДобавлено: 14 июн 2014 

Информация о фильме
Оригинальное название: Кухня в Парижe
Год выпуска: 2014
Жанр: Комедия
Режиссер: Дмитрий Дьяченко (II)
В ролях: Дмитрий Назаров, Дмитрий Нагиев, Елена Подкаминская, Марина Могилевская, Марк Богатырёв, Виктор Хориняк, Ольга Кузьмина, Екатерина Кузнецова, Валерия Федорович, Жанныл Асанбекова, Елена Чернявская, Алексей Колган, Сергей Лавыгин, Сергей Епишев, Михаил Тарабукин, Никита Тарасов, Юлия Такшина, Виктория Лукина, Виталий Щанников, Сергей Беляев, Роман Индык, Евгения Храповицкая, Ольга Новосад, Серафима Низовская, Александр Карпиловский, Мария Горбань, Ирина Бразговка

Описание: Модный столичный ресторан «Клод Моне» процветает. Именно здесь, в родном заведении Вика и Максим хотят отпраздновать долгожданную свадьбу. Но планы меняются, когда в ресторане назначают переговоры Президентов России и Франции! Команда ресторана терпит фиаско и вынуждена отправиться в «изгнание» — в Париж. Там Шеф с Максом сталкиваются с опасными конкурентами: Шеф — с ближайшим родственником, а Максим — с красавцем Николя, который кружит Вике голову не хуже искристого шампанского! И это еще не все вызовы, которые бросает им «Город любви», ведь надо постараться спасти репутацию, накормить Президентов и преодолеть миллион препятствий à la française…



Выпущено: Россия / YBW Group, Yellow, Black & White, СТС
Продолжительность: 01:46:42

Файл
Качество: BDRip 1080p
Видео: MPEG-4 AVC, 8000 Кбит/с, 1920x800, 24.000 кадр/с
Аудио #1: Русский (DTS, 6 ch, 1509 Кбит/с)
Аудио #2: Русский (AC3, 6 ch, 640 Кбит/с)

Семпл




* Съемки в Париже были осложнены многочисленными бюрократическими процедурами. Буквально все перемещения съемочной группы регулировались специальными разрешениями, полиция (как «сухопутная», так и речная) проводила постоянные проверки.
* Во Франции в съемочной группе было более 35 французов. Местные кинематографисты отмечали, что это беспрецедентная цифра для иностранного проекта.
В первый же день снимали сложнейшую сцену в Париже: встречу Президентов Франции и России, в которой были задействованы десятки актеров и статистов, транспорт и сложная техника.
* Венсан Перес помогал Елене Подкаминской и Никите Тарасову осваивать все нюансы французского произношения.
* Памятна всей группе и съемка в парижском квартале, где хозяйничают выходцы из Сенегала. Дмитрий Дьяченко рассказывает: «Местные полицейские нам сразу обозначили: разрешение на съемку – это не к нам. И пришлось договариваться с мафиози. Они не были похожи на карикатурных афроамериканских гангстеров: это были утонченные «прифранцуженные» люди в шикарных костюмах и на дорогих мерседесах. Но они такую цену заломили, что пришлось снимать неподалеку, где поспокойнее. И все равно было страшновато. Известный факт, что у Люка Бессона там однажды камеру отбирали, и он ездил выкупать ее у главного босса».
* Девушек-костюмеров и реквизиторов сотрудники парижского аэропорта приняли за челноков: у них было 20 баулов с костюмами и реквизитом. Также в Париж и обратно ездила целая фура с мебелью и техникой.
* Очень долго пришлось добиваться разрешения на прыжок каскадера в Сену. Ему даже пришлось делать специальную прививку. А полицейские, которые возникли с проверкой как только прыжок состоялся, предложили впредь обращаться к ним, так как они — «известные прыгуны».
За блюр спасибо: HDClub
x264 [info]: frame I:1750 Avg QP:16.30 size:196824
x264 [info]: frame P:39886 Avg QP:19.15 size: 71676
x264 [info]: frame B:112020 Avg QP:20.90 size: 28524
x264 [info]: consecutive B-frames: 5.0% 7.3% 12.7% 16.6% 15.6% 35.5% 5.8% 0.3% 1.2%
*****************************************************************************************
Общее
Уникальный идентификатор : 240461978929379116049653143037191342879 (0xB4E74AE5E9550D14A50BDDEB6CF34B1F)
Полное имя : D:Mои раздачиKuhnya.v.Parizhe.2014.BDRip.1080p-MediaClub.mkv
Формат : Matroska
Версия формата : Version 4 / Version 2
Размер файла : 7,56 Гбайт
Продолжительность : 1 ч. 46 м.
Общий поток : 10,1 Мбит/сек
Название фильма : -=MediaClub-kaspr=-
Дата кодирования : UTC 2014-06-13 04:03:16
Программа кодирования : mkvmerge v6.9.1 ('Blue Panther') 64bit built on Apr 18 2014 18:23:38
Библиотека кодирования : libebml v1.3.0 + libmatroska v1.4.1

Видео
Идентификатор : 1
Формат : AVC
Формат/Информация : Advanced Video Codec
Профиль формата : High@L4.1
Параметр CABAC формата : Да
Параметр ReFrames формата : 5 кадров
Идентификатор кодека : V_MPEG4/ISO/AVC
Продолжительность : 1 ч. 46 м.
Битрейт : 8000 Кбит/сек
Ширина : 1920 пикселей
Высота : 800 пикселей
Соотношение сторон : 2,40:1
Режим частоты кадров : Постоянный
Частота кадров : 24,000 кадра/сек
Цветовое пространство : YUV
Субдискретизация насыщенности : 4:2:0
Битовая глубина : 8 бит
Тип развёртки : Прогрессивная
Бит/(Пиксели*Кадры) : 0.217
Размер потока : 5,81 Гбайт (77%)
Заголовок : -=MediaClub-kaspr=-
Библиотека кодирования : x264 core 142 r2431+42 c69a006 tMod [8-bit@4:2:0 X86_64]
Настройки программы : cabac=1 / ref=5 / deblock=1:-3:-3 / analyse=0x3:0x113 / me=umh / subme=11 / psy=1 / fade_compensate=0.00 / psy_rd=1.00:0.20 / mixed_ref=1 / me_range=32 / chroma_me=1 / trellis=2 / 8x8dct=1 / cqm=0 / deadzone=21,11 / fast_pskip=0 / chroma_qp_offset=-3 / threads=12 / lookahead_threads=2 / sliced_threads=0 / nr=0 / decimate=0 / interlaced=0 / bluray_compat=0 / constrained_intra=0 / fgo=0 / bframes=8 / b_pyramid=2 / b_adapt=2 / b_bias=0 / direct=3 / weightb=1 / open_gop=0 / weightp=2 / keyint=240 / keyint_min=24 / scenecut=40 / intra_refresh=0 / rc=2pass / mbtree=0 / bitrate=8000 / ratetol=1.0 / qcomp=0.60 / qpmin=0:0:0 / qpmax=69:69:69 / qpstep=4 / cplxblur=20.0 / qblur=0.5 / ip_ratio=1.40 / pb_ratio=1.30 / aq=4:0.80 / aq-sensitivity=10.00 / aq-factor=1.00:1.00:1.00 / aq2=0 / aq3=0
Default : Да
Forced : Да

Аудио #1
Идентификатор : 2
Формат : DTS
Формат/Информация : Digital Theater Systems
Режим : 16
Параметр Endianness формата : Big
Идентификатор кодека : A_DTS
Продолжительность : 1 ч. 46 м.
Вид битрейта : Постоянный
Битрейт : 1509 Кбит/сек
Каналы : 6 каналов
Расположение каналов : Front: L C R, Side: L R, LFE
Частота : 48,0 КГц
Битовая глубина : 16 бит
Метод сжатия : С потерями
Размер потока : 1,12 Гбайт (15%)
Заголовок : DTS
Язык : Russian
Default : Да
Forced : Да

Аудио #2
Идентификатор : 3
Формат : AC-3
Формат/Информация : Audio Coding 3
Расширение режима : CM (complete main)
Параметр Endianness формата : Big
Идентификатор кодека : A_AC3
Продолжительность : 1 ч. 46 м.
Вид битрейта : Постоянный
Битрейт : 640 Кбит/сек
Каналы : 6 каналов
Расположение каналов : Front: L C R, Side: L R, LFE
Частота : 48,0 КГц
Битовая глубина : 16 бит
Метод сжатия : С потерями
Размер потока : 488 Мбайт (6%)
Заголовок : AC3
Язык : Russian
Default : Нет
Forced : Нет

Меню
00:00:00.000 : en:Chapter 01
00:06:37.500 : en:Chapter 02
00:17:28.333 : en:Chapter 03
00:28:03.750 : en:Chapter 04
00:36:58.916 : en:Chapter 05
00:47:06.583 : en:Chapter 06
00:56:38.291 : en:Chapter 07
01:05:31.666 : en:Chapter 08
01:14:49.541 : en:Chapter 09
01:24:20.750 : en:Chapter 10
01:34:23.000 : en:Chapter 11
01:41:27.208 : en:Chapter 12


Релиз: |



   Похожие торренты   Торрент   Размер 
В этой теме нет новых непрочитанных сообщений. Кухня в Париже (2014) BDRip 1080p | Лицензия

411 | 146

9.41 ГБ

В этой теме нет новых непрочитанных сообщений. Кухня в Париже (2014) BDRip 720p | Лицензия

276 | 88

4.4 ГБ

В этой теме нет новых непрочитанных сообщений. Кухня в Париже (2014) BDRip 720p | Лицензия

575 | 143

5.28 ГБ

В этой теме нет новых непрочитанных сообщений. Кухня в Париже (2014) BDRip-AVC от HELLYWOOD | Лицензия

580 | 13

1.46 ГБ

В этой теме нет новых непрочитанных сообщений. Кухня в Париже (2014) HDRip | Лицензия

452 | 74

744.8 МБ

В этой теме нет новых непрочитанных сообщений. Кухня в Париже (2014) HDRip-AVC | Лицензия

568 | 49

1.36 ГБ

В этой теме нет новых непрочитанных сообщений. Кухня в Париже (2014) HDRip | Лицензия

6649 | 498

1.46 ГБ




Вы не можете начинать темы
Вы не можете отвечать на сообщения
Вы не можете редактировать свои сообщения
Вы не можете удалять свои сообщения
Вы не можете добавлять вложения

Перейти:  
Для Мосгорсуда, Роскомнадзора и рекламодателей: mosgorsud-torrent[собачка]yandex.ru
 Вход
ppkBB3cker v.2 © 2008-2014 @ PPK
[ Time : 0.046s | 16 Queries | GZIP : Off ]

Торрент трекер RUTOR.IN, Не можете зайти на rutor.org? Какой новый адрес рутор? Какое зеркало рутор? Не работает rutor.org и зеркала? Тогда наш торрент специально для вас. Rutor.in неофициальное зеркало rutor. В случае если у Вас заблокирован rutor или вдруг Вы не можете на него зайти, то Вы без труда сможете скачать бесплатно и без рекламы последние новинки кино, игр, сериалов и прочего у нас, на Rutor.in. Не нужно использовать прокси, чтобы зайти на рутор, достаточно воспользоваться нашим ресурсом. Все новые фильмы, игры, сериалы, книги и музыка за 2013 и 2014 годы через торрент бесплатно. Скачивайте фильмы в хорошем качестве, игры для пк, xbox, playstation без регистрации. У нас вы найдете новые Зарубежные сериалы и Русские сериалы 2013, 2014, 2015 годов. Оставайтесь с нами, качайте любимые фильмы, игры, сериалы, книги и музыку.
cron