img image001 image001 image001 image001 image001 image001 image001 image001 image001 image001 image001 image001 image001 image001 image001

Planets Sun Sun Sun
Статистика раздачи
Автор: Nickolas3434 | Размер: 3.96 ГБ | Добавлен: 16 июн 2014
Раздают: 55    Качают: 64
Скачать торрент
Скачать торрент
Описание торрента

СообщениеДобавлено: 16 июн 2014 

Информация о фильме
Название: Стритрейсеры
Год выхода: 2008
Жанр: боевик
Режиссер: Олег Фесенко
В ролях: Алексей Чадов, Марина Александрова, Лев Прыгунов, Алексей Гуськов, Эльвира Болгова, Николай Чиндяйкин, Станислав Бондаренко, Евгений Филатов, Владислав Третьяк, Алексей Поггенполь

О фильме:
Они живут на предельной скорости. Они — стритрейсеры, уличные гонщики. Для них гонки — смысл жизни. Страсть, способная объединить самых разных людей. Даже таких, как Степан и Докер. Оба не только любят автомобили — они не мыслят жизни без скорости и риска. Но для одного цель никогда не оправдает средств, а для другого определяющее значение имеет лишь размер гонорара.
Когда появляется дело «на миллион долларов» — организовать в один вечер угон дорогостоящих элитных автомобилей, — Докер понимает, что без заклятого друга ему не обойтись. Когда Катя, любимая девушка Докера, уходит к Степану, становится понятным, что конфликта не избежать…



Страна: Россия
Студия: «Черепаха»
Продолжительность: 01:53:00
Перевод: не требуется

Файл
Кодек: H.264
Качество: BDRip 720p
Видео: MPEG-4 / AVC, 1280x544 ( 2.35:1 ), 23.976 fps ~ 4350 Kbps
Звук: AC3, 48 KHz 6 ch ~ 640 Kb/s
Субтитры: отсутствуют

Общее
Уникальный идентификатор : 216091482396746068019744546154501834664 (0xA291B4A69FF0359CB76DF0757AE307A8)
Полное имя : Q:TorFStritrejseri.2008.x264.BDRip.720p.mkv
Формат : Matroska
Версия формата : Version 2
Размер файла : 3,96 Гбайт
Продолжительность : 1 ч. 53 м.
Общий поток : 4992 Кбит/сек
Дата кодирования : UTC 2010-07-23 05:25:48
Программа кодирования : mkvmerge v3.3.0 ('Language') built on Mar 24 2010 14:59:24
Библиотека кодирования : libebml v0.8.0 + libmatroska v0.9.0

Видео
Идентификатор : 1
Формат : AVC
Формат/Информация : Advanced Video Codec
Профиль формата : High@L4.1
Параметр CABAC формата : Да
Параметр ReFrames формата : 8 кадров
Идентификатор кодека : V_MPEG4/ISO/AVC
Продолжительность : 1 ч. 53 м.
Битрейт : 4350 Кбит/сек
Ширина : 1280 пикселей
Высота : 544 пикселя
Соотношение сторон : 2,35:1
Частота кадров : 23,976 кадра/сек
Цветовое пространство : YUV
Субдискретизация насыщенности : 4:2:0
Битовая глубина : 8 бит
Тип развёртки : Прогрессивная
Бит/(Пиксели*Кадры) : 0.261
Размер потока : 3,38 Гбайт (85%)
Библиотека кодирования : x264 core 102 r1666 d058f37
Настройки программы : cabac=1 / ref=8 / deblock=1:-3:-3 / analyse=0x3:0x113 / me=umh / subme=9 / psy=1 / psy_rd=1.20:0.00 / mixed_ref=1 / me_range=32 / chroma_me=1 / trellis=2 / 8x8dct=1 / cqm=0 / deadzone=21,11 / fast_pskip=0 / chroma_qp_offset=-2 / threads=6 / sliced_threads=0 / nr=0 / decimate=1 / interlaced=0 / constrained_intra=0 / bframes=10 / b_pyramid=2 / b_adapt=2 / b_bias=0 / direct=3 / weightb=1 / open_gop=0 / weightp=2 / keyint=24 / keyint_min=1 / scenecut=40 / intra_refresh=0 / rc_lookahead=29 / rc=2pass / mbtree=1 / bitrate=4350 / ratetol=1.0 / qcomp=0.60 / qpmin=10 / qpmax=51 / qpstep=4 / cplxblur=20.0 / qblur=0.5 / vbv_maxrate=24000 / vbv_bufsize=30000 / ip_ratio=1.40 / aq=1:0.70 / nal_hrd=none
Default : Да
Forced : Нет
Основные цвета : Generic film

Аудио
Идентификатор : 2
Формат : AC-3
Формат/Информация : Audio Coding 3
Расширение режима : CM (complete main)
Идентификатор кодека : A_AC3
Продолжительность : 1 ч. 53 м.
Вид битрейта : Постоянный
Битрейт : 640 Кбит/сек
Каналы : 6 каналов
Расположение каналов : Front: L C R, Side: L R, LFE
Частота : 48,0 КГц
Битовая глубина : 16 бит
Метод сжатия : С потерями
Задержка видео : 7 мс.
Размер потока : 520 Мбайт (13%)
Default : Да
Forced : Нет

Меню
00:00:00.000 : :(unnamed)
00:07:12.098 : :(unnamed)
00:18:04.249 : :(unnamed)
00:32:34.994 : :(unnamed)
00:43:41.285 : :(unnamed)
00:56:23.838 : :(unnamed)
01:08:23.807 : :(unnamed)
01:19:59.085 : :(unnamed)
01:33:48.247 : :(unnamed)
01:40:16.176 : :(unnamed)
01:53:40.021 : :(unnamed)





   Похожие торренты   Торрент   Размер 
В этой теме нет новых непрочитанных сообщений. Стритрейсеры (2008) BDRip от HQCLUB

290 | 15

1.45 ГБ

В этой теме нет новых непрочитанных сообщений. Стритрейсеры (2008) BDRip 1080p

129 | 10

6.81 ГБ

В этой теме нет новых непрочитанных сообщений. Стритрейсеры (2008) BDRip от NovaLan

60 | 2

1.74 ГБ

В этой теме нет новых непрочитанных сообщений. Стритрейсеры (2008) BDRip | Лицензия

189 | 17

2.05 ГБ

В этой теме нет новых непрочитанных сообщений. Стритрейсеры (2008) MP3

0 | 3

84.7 МБ

В этой теме нет новых непрочитанных сообщений. Стритрейсеры (2008) MP3

1 | 3

11.2 ГБ

В этой теме нет новых непрочитанных сообщений. Стритрейсеры (2008) DVDRip

21 | 5

1.37 ГБ




Вы не можете начинать темы
Вы не можете отвечать на сообщения
Вы не можете редактировать свои сообщения
Вы не можете удалять свои сообщения
Вы не можете добавлять вложения

Перейти:  
Для Мосгорсуда, Роскомнадзора и рекламодателей: mosgorsud-torrent[собачка]yandex.ru
 Вход
ppkBB3cker v.2 © 2008-2014 @ PPK
[ Time : 5.639s | 15 Queries | GZIP : Off ]

Торрент трекер RUTOR.IN, Не можете зайти на rutor.org? Какой новый адрес рутор? Какое зеркало рутор? Не работает rutor.org и зеркала? Тогда наш торрент специально для вас. Rutor.in неофициальное зеркало rutor. В случае если у Вас заблокирован rutor или вдруг Вы не можете на него зайти, то Вы без труда сможете скачать бесплатно и без рекламы последние новинки кино, игр, сериалов и прочего у нас, на Rutor.in. Не нужно использовать прокси, чтобы зайти на рутор, достаточно воспользоваться нашим ресурсом. Все новые фильмы, игры, сериалы, книги и музыка за 2013 и 2014 годы через торрент бесплатно. Скачивайте фильмы в хорошем качестве, игры для пк, xbox, playstation без регистрации. У нас вы найдете новые Зарубежные сериалы и Русские сериалы 2013, 2014, 2015 годов. Оставайтесь с нами, качайте любимые фильмы, игры, сериалы, книги и музыку.