img image001 image001 image001 image001 image001 image001 image001 image001 image001 image001 image001 image001 image001 image001 image001

Planets Sun Sun Sun
Статистика раздачи
Автор: Nickolas3434 | Размер: 1.37 ГБ | Добавлен: 16 июн 2014
Раздают: 113    Качают: 2
Скачать торрент
Скачать торрент
Описание торрента

СообщениеДобавлено: 16 июн 2014 

Информация о фильме

Оригинальное название: 22 минуты
Год выпуска: 2014
Жанр: Боевик
Выпущено: Россия, «Централ Партнершип»
Режиссер: Василий Сериков
В ролях: Макар Запорожский, Денис Никифоров, Виктор Сухоруков, Екатерина Маликова, Гаэль Камилинди, Александр Галибин, Владислав Дёмин, Ибрагим Тооре, Софья Козко, Иван Породнов
О фильме: Морпех — первогодок Саня Ежов оказывается среди пиратов на захваченном танкере. Он знает — товарищи не бросят. Ему нужно выжить и помочь своим, когда начнется штурм. Фильм основан на реальных событиях 5 мая 2010 года, когда морские пехотинцы БПК «Маршал Шапошников» освободили захваченный в водах Аденского залива российский танкер «Московский университет». У них было только 22 минуты без права на ошибку…

Файл

Качество: WEB-DLRip
Видео: XviD, 2010 Кбит/с, 720x400, 25 кадр/с
Аудио: AC3, 6 ch, 448 Кбит/с
Размер: 1.37 ГБ
Продолжительность: 01:19:31
Язык: Русский
Озвучивание - Лицензия (BD-Rus)
сравнение
Общее
Полное имя : D:Загрузки22.Minuti.2014.WEB-DLRip.ExKinoRay.avi
Формат : AVI
Формат/Информация : Audio Video Interleave
Размер файла : 1,37 Гбайт
Продолжительность : 1 ч. 19 м.
Общий поток : 2468 Кбит/сек
Программа кодирования : VirtualDubMod 1.5.10.2 (build 2540/release)
Библиотека кодирования : VirtualDubMod build 2540/release

Видео
Идентификатор : 0
Формат : MPEG-4 Visual
Профиль формата : Advanced Simple@L5
Параметр BVOP формата : 1
Параметр QPel формата : Нет
Параметр GMC формата : Без точки перехода
Параметр матрицы формата : Выборочная
Идентификатор кодека : XVID
Идентификатор кодека/Подсказка : XviD
Продолжительность : 1 ч. 19 м.
Битрейт : 2010 Кбит/сек
Ширина : 720 пикселей
Высота : 400 пикселей
Соотношение сторон : 16:9
Частота кадров : 25,000 кадров/сек
Цветовое пространство : YUV
Субдискретизация насыщенности : 4:2:0
Битовая глубина : 8 бит
Тип развёртки : Прогрессивная
Метод сжатия : С потерями
Бит/(Пиксели*Кадры) : 0.279
Размер потока : 1,12 Гбайт (81%)
Библиотека кодирования : XviD 1.2.1 (UTC 2008-12-04)

Аудио
Идентификатор : 1
Формат : AC-3
Формат/Информация : Audio Coding 3
Расширение режима : CM (complete main)
Параметр Endianness формата : Big
Идентификатор кодека : 2000
Продолжительность : 1 ч. 19 м.
Вид битрейта : Постоянный
Битрейт : 448 Кбит/сек
Каналы : 6 каналов
Расположение каналов : Front: L C R, Side: L R, LFE
Частота : 48,0 КГц
Битовая глубина : 16 бит
Метод сжатия : С потерями
Размер потока : 255 Мбайт (18%)
Выравнивание : Разделение по промежуткам
Продолжительность промежутка : 40 мс. (1,00 видеокадр)
Время предзагрузки промежутка : 500 мс.







Релиз от: Rip by:



   Похожие торренты   Торрент   Размер 
В этой теме нет новых непрочитанных сообщений. 22 минуты (2014) WEB-DLRip-AVC от ExKinoRay | Лицензия

53 | 2

1.93 ГБ

В этой теме нет новых непрочитанных сообщений. 22 минуты (2014) WEB-DL 720p от ExKinoRay | Лицензия

121 | 2

3.39 ГБ

В этой теме нет новых непрочитанных сообщений. 22 минуты (2014) HDRip-AVC от ExKinoRay | Лицензия

492 | 73

2.06 ГБ

В этой теме нет новых непрочитанных сообщений. 22 минуты (2014) WEB-DLRip-AVC от ExKinoRay | iTunes

223 | 7

1.9 ГБ

В этой теме нет новых непрочитанных сообщений. 22 минуты (2014) WEB-DL 1080p от ExKinoRay

86 | 6

3.95 ГБ

В этой теме нет новых непрочитанных сообщений. 22 минуты (2014) BDRip-AVC от ExKinoRay

40 | 5

746.08 МБ

В этой теме нет новых непрочитанных сообщений. 22 минуты (2014) BDRemux 1080р от ExKinoRay

204 | 59

13.23 ГБ




Вы не можете начинать темы
Вы не можете отвечать на сообщения
Вы не можете редактировать свои сообщения
Вы не можете удалять свои сообщения
Вы не можете добавлять вложения

Перейти:  
Для Мосгорсуда, Роскомнадзора и рекламодателей: mosgorsud-torrent[собачка]yandex.ru
 Вход
ppkBB3cker v.2 © 2008-2014 @ PPK
[ Time : 0.043s | 17 Queries | GZIP : Off ]

cron