img image001 image001 image001 image001 image001 image001 image001 image001 image001 image001 image001 image001 image001 image001 image001

Planets Sun Sun Sun
Статистика раздачи
Автор: Nickolas3434 | Размер: 1.93 ГБ | Добавлен: 16 июн 2014
Раздают: 53    Качают: 2
Скачать торрент
Скачать торрент
Описание торрента

СообщениеДобавлено: 16 июн 2014 

Информация о фильме
Оригинальное название: 22 минуты
Год выпуска: 2014
Жанр: Боевик
Выпущено: Россия, Централ Партнершип
Режиссер: Василий Сериков
В ролях: Макар Запорожский, Денис Никифоров, Виктор Сухоруков, Екатерина Маликова, Гаэль Камилинди, Александр Галибин, Владислав Дёмин, Ибрагим Тооре, Софья Козко, Иван Породнов

О фильме: Морпех — первогодок Саня Ежов оказывается среди пиратов на захваченном танкере. Он знает — товарищи не бросят. Ему нужно выжить и помочь своим, когда начнется штурм. Фильм основан на реальных событиях 5 мая 2010 года, когда морские пехотинцы БПК «Маршал Шапошников» освободили захваченный в водах Аденского залива российский танкер «Московский университет». У них было только 22 минуты без права на ошибку…



Файл
Качество: WEB-DLRip (AVC)
Видео: MPEG-4 AVC, 3050 Кбит/с, 1024x576
Аудио: AC3, 6 ch, 448 Кбит/с
Продолжительность: 01:19:31
Язык: Русский

Общее
Уникальный идентификатор : 240885965815351427479889844709855123820 (0xB538F310C52A140F86A0F888AC28D96C)
Полное имя : D:Загрузки22.m1nut1.2014.O.WEB-DLRip.AVC.ExKinoRay.mkv
Формат : Matroska
Версия формата : Version 2
Размер файла : 1,93 Гбайт
Продолжительность : 1 ч. 19 м.
Общий поток : 3480 Кбит/сек
Название фильма : 22 Минуты. 2014. ExKinoRay
Дата кодирования : UTC 2014-06-15 19:18:00
Программа кодирования : mkvmerge v5.6.0 ('Kenya Kane') built on May 27 2012 16:44:04
Библиотека кодирования : libebml v1.2.3 + libmatroska v1.3.0

Видео
Идентификатор : 1
Формат : AVC
Формат/Информация : Advanced Video Codec
Профиль формата : High@L4.1
Параметр CABAC формата : Да
Параметр ReFrames формата : 9 кадров
Идентификатор кодека : V_MPEG4/ISO/AVC
Продолжительность : 1 ч. 19 м.
Битрейт : 3050 Кбит/сек
Ширина : 1024 пикселя
Высота : 576 пикселей
Соотношение сторон : 16:9
Режим частоты кадров : Постоянный
Частота кадров : 25,000 кадров/сек
Цветовое пространство : YUV
Субдискретизация насыщенности : 4:2:0
Битовая глубина : 8 бит
Тип развёртки : Прогрессивная
Бит/(Пиксели*Кадры) : 0.207
Размер потока : 1,65 Гбайт (85%)
Заголовок : Enigma
Библиотека кодирования : x264 core 116 r2044 392e762
Настройки программы : cabac=1 / ref=9 / deblock=1:-2:-2 / analyse=0x3:0x113 / me=umh / subme=10 / psy=1 / psy_rd=1.00:0.20 / mixed_ref=1 / me_range=32 / chroma_me=1 / trellis=2 / 8x8dct=1 / cqm=0 / deadzone=21,11 / fast_pskip=0 / chroma_qp_offset=-3 / threads=12 / sliced_threads=0 / nr=0 / decimate=0 / interlaced=0 / bluray_compat=0 / constrained_intra=0 / bframes=8 / b_pyramid=2 / b_adapt=2 / b_bias=0 / direct=3 / weightb=1 / open_gop=0 / weightp=2 / keyint=250 / keyint_min=25 / scenecut=40 / intra_refresh=0 / rc=2pass / mbtree=0 / bitrate=3050 / ratetol=1.0 / qcomp=0.60 / qpmin=0 / qpmax=69 / qpstep=4 / cplxblur=20.0 / qblur=0.5 / ip_ratio=1.40 / pb_ratio=1.30 / aq=1:1.00
Язык : Russian
Default : Да
Forced : Нет

Аудио
Идентификатор : 2
Формат : AC-3
Формат/Информация : Audio Coding 3
Расширение режима : CM (complete main)
Параметр Endianness формата : Big
Идентификатор кодека : A_AC3
Продолжительность : 1 ч. 19 м.
Вид битрейта : Постоянный
Битрейт : 448 Кбит/сек
Каналы : 6 каналов
Расположение каналов : Front: L C R, Side: L R, LFE
Частота : 48,0 КГц
Битовая глубина : 16 бит
Метод сжатия : С потерями
Размер потока : 255 Мбайт (13%)
Заголовок : Дублированный (BD-Rus)
Язык : Russian
Default : Да
Forced : Нет

Меню
00:00:00.000 : en:Глава 1
00:07:12.000 : en:Глава 2
00:12:17.000 : en:Глава 3
00:17:21.000 : en:Глава 4
00:22:21.000 : en:Глава 5
00:27:23.000 : en:Глава 6
00:32:29.000 : en:Глава 7
00:37:52.000 : en:Глава 8
00:43:00.000 : en:Глава 9
00:48:02.000 : en:Глава 10
00:53:09.000 : en:Глава 11
00:58:12.000 : en:Глава 12
01:03:13.000 : en:Глава 13
01:08:18.000 : en:Глава 14




Релиз от:

Автор релиза:



   Похожие торренты   Торрент   Размер 
В этой теме нет новых непрочитанных сообщений. 22 минуты (2014) WEB-DLRip от ExKinoRay | Лицензия

113 | 2

1.37 ГБ

В этой теме нет новых непрочитанных сообщений. 22 минуты (2014) HDRip-AVC от ExKinoRay | Лицензия

492 | 73

2.06 ГБ

В этой теме нет новых непрочитанных сообщений. 22 минуты (2014) WEB-DL 720p от ExKinoRay | Лицензия

121 | 2

3.39 ГБ

В этой теме нет новых непрочитанных сообщений. 22 минуты (2014) WEB-DLRip-AVC от ExKinoRay | iTunes

223 | 7

1.9 ГБ

В этой теме нет новых непрочитанных сообщений. 22 минуты (2014) WEB-DL 1080p от ExKinoRay

86 | 6

3.95 ГБ

В этой теме нет новых непрочитанных сообщений. 22 минуты (2014) BDRip-AVC от ExKinoRay

38 | 0

746.08 МБ

В этой теме нет новых непрочитанных сообщений. 22 минуты (2014) BDRemux 1080р от ExKinoRay

204 | 59

13.23 ГБ




Вы не можете начинать темы
Вы не можете отвечать на сообщения
Вы не можете редактировать свои сообщения
Вы не можете удалять свои сообщения
Вы не можете добавлять вложения

Перейти:  
Для Мосгорсуда, Роскомнадзора и рекламодателей: mosgorsud-torrent[собачка]yandex.ru
 Вход
ppkBB3cker v.2 © 2008-2014 @ PPK
[ Time : 0.035s | 16 Queries | GZIP : Off ]

cron