img image001 image001 image001 image001 image001 image001 image001 image001 image001 image001 image001 image001 image001 image001 image001

Planets Sun Sun Sun
Статистика раздачи
Автор: Nickolas3434 | Размер: 1.46 ГБ | Добавлен: 16 июн 2014
Раздают: 23    Качают: 16
Скачать торрент
Скачать торрент
Описание торрента

СообщениеДобавлено: 16 июн 2014 

Страна: Россия
Производство: Ленфильм

Жанр: детектив
Год выпуска: 1997
Продолжительность: 02:27:08

Перевод: не требуется
Оригинальная аудиодорожка: русский
Cубтитры: нет

Режиссер: Виктор Сергеев

В ролях:
Александр Абдулов, Александр Збруев, Кирилл Лавров, Леонид Броневой, Армен Джигарханян, Николай Трофимов, Борис Клюев, Юрий Кузнецов, Леонид Неведомский, Виктор Степанов, Сергей Степанченко, Дарья Каболова, Владимир Головин, Наталия Антонова, Вячеслав Павлов, Георгий Мартиросян, Сергей Селин, Анатолий Хропов...

Описание:
Решенный в жанре политического детектива, фильм рассказывает о широких связях криминального мира России с правоохранительными структурами и спецслужбами, коррумпированности правительственных чиновников самого высоко ранга…





Исходник: DVD9 R5
Тип релиза: DVDRip
Контейнер: AVI

Видео: 688x432 (16:10), 25 fps, XviD ~ 1216 kbps avg, 0.164 bit/pixel
Аудио: 48 kHz, Dolby Digital 2.0, 192 kbps

Раздача от:
Общее
Полное имя : Shizofreniya.1997.DVDRip_[New-team]_by_AVP_Studio.avi
Формат : AVI
Формат/Информация : Audio Video Interleave
Размер файла : 1,46 Гбайт
Продолжительность : 2 ч. 27 м.
Общий поток : 1417 Кбит/сек
Программа кодирования : VirtualDubModRus 1.5.10.2 (build 2542/release)
Библиотека кодирования : VirtualDubMod build 2542/release

Видео
Идентификатор : 0
Формат : MPEG-4 Visual
Профиль формата : Advanced Simple@L5
Параметр BVOP формата : 1
Параметр QPel формата : Нет
Параметр GMC формата : Без точки перехода
Параметр матрицы формата : Выборочная
Идентификатор кодека : XVID
Идентификатор кодека/Подсказка : XviD
Продолжительность : 2 ч. 27 м.
Битрейт : 1216 Кбит/сек
Ширина : 688 пикселей
Высота : 432 пикселя
Соотношение сторон : 16:10
Частота кадров : 25,000 кадров/сек
Цветовое пространство : YUV
Субдискретизация насыщенности : 4:2:0
Битовая глубина : 8 бит
Тип развёртки : Прогрессивная
Метод сжатия : С потерями
Бит/(Пиксели*Кадры) : 0.164
Размер потока : 1,25 Гбайт (86%)
Библиотека кодирования : XviD 73

Аудио
Идентификатор : 1
Формат : AC-3
Формат/Информация : Audio Coding 3
Расширение режима : CM (complete main)
Параметр Endianness формата : Big
Идентификатор кодека : 2000
Продолжительность : 2 ч. 27 м.
Вид битрейта : Постоянный
Битрейт : 192 Кбит/сек
Каналы : 2 канала
Расположение каналов : Front: L R
Частота : 48,0 КГц
Битовая глубина : 16 бит
Метод сжатия : С потерями
Размер потока : 202 Мбайт (14%)
Выравнивание : Разделение по промежуткам
Продолжительность промежутка : 40 мс. (1,00 видеокадр)
Время предзагрузки промежутка : 500 мс



В фильме показана одна из пяти колоний для пожизненно осужденных — «Вологодский пятак».
В сцене, когда борт стоит на точке запуска, виден бортовой номер самолёта RA-86061. (данный борт списан и порезан в 2007-м году)
"Борт 86070" - именно так в фильме обращается наземный диспетчер к экипажу вс. Самолёт с таким номером списан и порезан в 2009-м году.
В одной из финальных сцен фильма показано, как после взлёта взрывается самолёт Ил-86 (бортовой номер RA-86060). Это единственный самолёт из всех Ил-86 (за всю историю таких самолётов), который в действительности разбился. Катастрофа случилась 28 июля 2002 года при взлете из московского аэропорта в Шереметьево.
В здании, в котором по сценарию находилось Объединение банков "Круг", в реальной жизни находится никитское отделение Банка Москвы, расположенное по адресу ул. Большая Никитская, дом 33, строение 1.



   Похожие торренты   Торрент   Размер 
В этой теме нет новых непрочитанных сообщений. Шизофрения (1997) DVDRip-AVC от New-Team

268 | 31

1.45 ГБ

В этой теме нет новых непрочитанных сообщений. Шизофрения (1997) DVDRip

33 | 7

2.19 ГБ

В этой теме нет новых непрочитанных сообщений. Шизофрения (1997) DVDRip от PlanetaUA

2 | 4

1.45 ГБ

В этой теме нет новых непрочитанных сообщений. Александр Розенбаум - Вялотекущая шизофрения (1994) MP3

35 | 5

112.76 МБ

В этой теме нет новых непрочитанных сообщений. Александр Розенбаум - Вялотекущая шизофрения (1994) FLAC

1 | 3

329.85 МБ

В этой теме нет новых непрочитанных сообщений. Брат (1997) DVDRip-AVC от New-Team

251 | 15

2.17 ГБ

В этой теме нет новых непрочитанных сообщений. Брат (1997) HD-DVDRip от New-Team

296 | 19

745.05 МБ




Вы не можете начинать темы
Вы не можете отвечать на сообщения
Вы не можете редактировать свои сообщения
Вы не можете удалять свои сообщения
Вы не можете добавлять вложения

Перейти:  
Для Мосгорсуда, Роскомнадзора и рекламодателей: mosgorsud-torrent[собачка]yandex.ru
 Вход
ppkBB3cker v.2 © 2008-2014 @ PPK
[ Time : 0.104s | 16 Queries | GZIP : Off ]

Торрент трекер RUTOR.IN, Не можете зайти на rutor.org? Какой новый адрес рутор? Какое зеркало рутор? Не работает rutor.org и зеркала? Тогда наш торрент специально для вас. Rutor.in неофициальное зеркало rutor. В случае если у Вас заблокирован rutor или вдруг Вы не можете на него зайти, то Вы без труда сможете скачать бесплатно и без рекламы последние новинки кино, игр, сериалов и прочего у нас, на Rutor.in. Не нужно использовать прокси, чтобы зайти на рутор, достаточно воспользоваться нашим ресурсом. Все новые фильмы, игры, сериалы, книги и музыка за 2013 и 2014 годы через торрент бесплатно. Скачивайте фильмы в хорошем качестве, игры для пк, xbox, playstation без регистрации. У нас вы найдете новые Зарубежные сериалы и Русские сериалы 2013, 2014, 2015 годов. Оставайтесь с нами, качайте любимые фильмы, игры, сериалы, книги и музыку.