img image001 image001 image001 image001 image001 image001 image001 image001 image001 image001 image001 image001 image001 image001 image001

Planets Sun Sun Sun
Статистика раздачи
Автор: Nickolas3434 | Размер: 1.45 ГБ | Добавлен: 16 июн 2014
Раздают: 268    Качают: 31
Скачать торрент
Скачать торрент
Описание торрента

СообщениеДобавлено: 16 июн 2014 

Страна: Россия
Производство: Ленфильм

Жанр: детектив
Год выпуска: 1997
Продолжительность: 02:27:08

Перевод: не требуется
Оригинальная аудиодорожка: русский
Cубтитры: нет

Режиссер: Виктор Сергеев

В ролях:
Александр Абдулов, Александр Збруев, Кирилл Лавров, Леонид Броневой, Армен Джигарханян, Николай Трофимов, Борис Клюев, Юрий Кузнецов, Леонид Неведомский, Виктор Степанов, Сергей Степанченко, Дарья Каболова, Владимир Головин, Наталия Антонова, Вячеслав Павлов, Георгий Мартиросян, Сергей Селин, Анатолий Хропов...

Описание:
Решенный в жанре политического детектива, фильм рассказывает о широких связях криминального мира России с правоохранительными структурами и спецслужбами, коррумпированности правительственных чиновников самого высоко ранга…





Исходник: DVD9 R5
Тип релиза: DVDRip-AVC
Контейнер: MKV

Видео: 696->758x474 (16:10), 25 fps, H264 ~ 1222 kbps avg, 0.148 bit/pixel
Аудио: 48 kHz, Dolby Digital 2.0, 192 kbps

Раздача от:
Общее
Полное имя : Shizofreniya.1997.DVDRip-AVC_[New-team]_by_AVP_Studio.mkv
Формат : Matroska
Версия формата : Version 2
Размер файла : 1,45 Гбайт
Продолжительность : 2 ч. 27 м.
Общий поток : 1416 Кбит/сек
Дата кодирования : UTC 2014-06-14 18:30:05
Программа кодирования : mkvmerge v6.1.0 ('Old Devil') built on Mar 4 2013 09:10:42
Библиотека кодирования : libebml v1.3.0 + libmatroska v1.4.0

Видео
Идентификатор : 1
Формат : AVC
Формат/Информация : Advanced Video Codec
Профиль формата : High@L4.1
Параметр CABAC формата : Да
Параметр ReFrames формата : 8 кадров
Идентификатор кодека : V_MPEG4/ISO/AVC
Продолжительность : 2 ч. 27 м.
Битрейт : 1222 Кбит/сек
Ширина : 696 пикселей
Высота : 474 пикселя
Соотношение сторон : 16:10
Соотношение сторон в оригинале : 16:10
Режим частоты кадров : Постоянный
Частота кадров : 25,000 кадров/сек
Цветовое пространство : YUV
Субдискретизация насыщенности : 4:2:0
Битовая глубина : 8 бит
Тип развёртки : Прогрессивная
Бит/(Пиксели*Кадры) : 0.148
Размер потока : 1,23 Гбайт (84%)
Библиотека кодирования : x264 core 138 r2356 a1d3d17
Настройки программы : cabac=1 / ref=8 / deblock=1:-2:-1 / analyse=0x3:0x113 / me=umh / subme=10 / psy=1 / psy_rd=1.00:0.05 / mixed_ref=1 / me_range=32 / chroma_me=1 / trellis=2 / 8x8dct=1 / cqm=0 / deadzone=21,11 / fast_pskip=0 / chroma_qp_offset=-3 / threads=6 / lookahead_threads=1 / sliced_threads=0 / nr=0 / decimate=0 / interlaced=0 / bluray_compat=0 / constrained_intra=0 / bframes=8 / b_pyramid=2 / b_adapt=2 / b_bias=0 / direct=3 / weightb=1 / open_gop=0 / weightp=2 / keyint=250 / keyint_min=25 / scenecut=40 / intra_refresh=0 / rc=2pass / mbtree=0 / bitrate=1222 / ratetol=1.0 / qcomp=0.60 / qpmin=0 / qpmax=69 / qpstep=4 / cplxblur=20.0 / qblur=0.5 / ip_ratio=1.40 / pb_ratio=1.30 / aq=1:1.00
Default : Да
Forced : Нет

Аудио
Идентификатор : 2
Формат : AC-3
Формат/Информация : Audio Coding 3
Расширение режима : CM (complete main)
Параметр Endianness формата : Big
Идентификатор кодека : A_AC3
Продолжительность : 2 ч. 27 м.
Вид битрейта : Постоянный
Битрейт : 192 Кбит/сек
Каналы : 2 канала
Расположение каналов : Front: L R
Частота : 48,0 КГц
Битовая глубина : 16 бит
Метод сжатия : С потерями
Размер потока : 202 Мбайт (14%)
Default : Да
Forced : Нет



В фильме показана одна из пяти колоний для пожизненно осужденных — «Вологодский пятак».
В сцене, когда борт стоит на точке запуска, виден бортовой номер самолёта RA-86061. (данный борт списан и порезан в 2007-м году)
"Борт 86070" - именно так в фильме обращается наземный диспетчер к экипажу вс. Самолёт с таким номером списан и порезан в 2009-м году.
В одной из финальных сцен фильма показано, как после взлёта взрывается самолёт Ил-86 (бортовой номер RA-86060). Это единственный самолёт из всех Ил-86 (за всю историю таких самолётов), который в действительности разбился. Катастрофа случилась 28 июля 2002 года при взлете из московского аэропорта в Шереметьево.
В здании, в котором по сценарию находилось Объединение банков "Круг", в реальной жизни находится никитское отделение Банка Москвы, расположенное по адресу ул. Большая Никитская, дом 33, строение 1.



   Похожие торренты   Торрент   Размер 
В этой теме нет новых непрочитанных сообщений. Шизофрения (1997) DVDRip от New-Team

23 | 16

1.46 ГБ

В этой теме нет новых непрочитанных сообщений. Шизофрения (1997) DVDRip

33 | 7

2.19 ГБ

В этой теме нет новых непрочитанных сообщений. Шизофрения (1997) DVDRip от PlanetaUA

2 | 4

1.45 ГБ

В этой теме нет новых непрочитанных сообщений. Александр Розенбаум - Вялотекущая шизофрения (1994) MP3

35 | 5

112.76 МБ

В этой теме нет новых непрочитанных сообщений. Александр Розенбаум - Вялотекущая шизофрения (1994) FLAC

1 | 3

329.85 МБ

В этой теме нет новых непрочитанных сообщений. Брат (1997) DVDRip-AVC от New-Team

251 | 15

2.17 ГБ

В этой теме нет новых непрочитанных сообщений. Брат (1997) HD-DVDRip от New-Team

296 | 19

745.05 МБ




Вы не можете начинать темы
Вы не можете отвечать на сообщения
Вы не можете редактировать свои сообщения
Вы не можете удалять свои сообщения
Вы не можете добавлять вложения

Перейти:  
Для Мосгорсуда, Роскомнадзора и рекламодателей: mosgorsud-torrent[собачка]yandex.ru
 Вход
ppkBB3cker v.2 © 2008-2014 @ PPK
[ Time : 0.044s | 15 Queries | GZIP : Off ]

Торрент трекер RUTOR.IN, Не можете зайти на rutor.org? Какой новый адрес рутор? Какое зеркало рутор? Не работает rutor.org и зеркала? Тогда наш торрент специально для вас. Rutor.in неофициальное зеркало rutor. В случае если у Вас заблокирован rutor или вдруг Вы не можете на него зайти, то Вы без труда сможете скачать бесплатно и без рекламы последние новинки кино, игр, сериалов и прочего у нас, на Rutor.in. Не нужно использовать прокси, чтобы зайти на рутор, достаточно воспользоваться нашим ресурсом. Все новые фильмы, игры, сериалы, книги и музыка за 2013 и 2014 годы через торрент бесплатно. Скачивайте фильмы в хорошем качестве, игры для пк, xbox, playstation без регистрации. У нас вы найдете новые Зарубежные сериалы и Русские сериалы 2013, 2014, 2015 годов. Оставайтесь с нами, качайте любимые фильмы, игры, сериалы, книги и музыку.