img image001 image001 image001 image001 image001 image001 image001 image001 image001 image001 image001 image001 image001 image001 image001

Planets Sun Sun Sun
Статистика раздачи
Автор: Nickolas3434 | Размер: 3.11 ГБ | Добавлен: 18 июн 2014
Раздают: 2194    Качают: 46
Скачать торрент
Скачать торрент
Описание торрента

СообщениеДобавлено: 18 июн 2014 

Информация о фильме
Название: Кухня в Париже
Год выхода: 2014
Жанр: комедия
Режиссер: Дмитрий Дьяченко
В ролях: Дмитрий Назаров, Марк Богатырев, Елена Подкаминская, Дмитрий Нагиев, Олег Табаков, Венсан Перес, Михаил Тарабукин, Сергей Лавыгин, Никита Тарасов, Виктор Хориняк

О фильме: Модный столичный ресторан «Клод Моне» процветает. Именно здесь, в родном заведении Вика и Максим хотят отпраздновать долгожданную свадьбу. Но планы меняются, когда в ресторане назначают переговоры Президентов России и Франции! Команда ресторана терпит фиаско и вынуждена отправиться в «изгнание» — в Париж. Там Шеф с Максом сталкиваются с опасными конкурентами: Шеф — с ближайшим родственником, а Максим — с красавцем Николя, который кружит Вике голову не хуже искристого шампанского! И это еще не все вызовы, которые бросает им «Город любви», ведь надо постараться спасти репутацию, накормить Президентов и преодолеть миллион препятствий à la française…



Выпущено: Yellow, Black & White
Продолжительность: 01:46:42
Перевод: Оригинал (лицензия)

Файл
Кодек: x264
Качество: BDRip (источник: Blu-ray Disc)
Видео: 1280x534 (2,40:1), 24 fps, 3720 kbps
Аудио: AC-3, 6 ch, 448 kbps
Скачать: сэмпл

Скриншоты

Общее
Уникальный идентификатор : 231980033946968455665324726608014075974 (0xAE85BAB92965858083A0950200EFE846)
Полное имя : Kukhnya.v.Parizhe.2014.BDRip.720p.Rus.mkv
Формат : Matroska
Версия формата : Version 2
Размер файла : 3,11 Гбайт
Продолжительность : 1 ч. 46 м.
Общий поток : 4168 Кбит/сек
Название фильма : Кухня в Париже (2014)
Дата кодирования : UTC 2014-06-16 15:32:22
Программа кодирования : mkvmerge v5.8.0 ('No Sleep / Pillow') built on Sep 2 2012 15:37:04
Библиотека кодирования : libebml v1.2.3 + libmatroska v1.3.0

Видео
Идентификатор : 1
Формат : AVC
Формат/Информация : Advanced Video Codec
Профиль формата : High@L4.1
Параметр CABAC формата : Да
Параметр ReFrames формата : 11 кадров
Идентификатор кодека : V_MPEG4/ISO/AVC
Продолжительность : 1 ч. 46 м.
Битрейт : 3718 Кбит/сек
Ширина : 1280 пикселей
Высота : 534 пикселя
Соотношение сторон : 2,40:1
Режим частоты кадров : Постоянный
Частота кадров : 24,000 кадра/сек
Цветовое пространство : YUV
Субдискретизация насыщенности : 4:2:0
Битовая глубина : 8 бит
Тип развёртки : Прогрессивная
Бит/(Пиксели*Кадры) : 0.227
Размер потока : 2,71 Гбайт (87%)
Заголовок : Release by AlexKa
Библиотека кодирования : x264 core 142 r2431 ac76440
Настройки программы : cabac=1 / ref=11 / deblock=1:-3:-3 / analyse=0x3:0x133 / me=umh / subme=11 / psy=1 / psy_rd=1.00:0.00 / mixed_ref=1 / me_range=32 / chroma_me=1 / trellis=2 / 8x8dct=1 / cqm=0 / deadzone=21,11 / fast_pskip=0 / chroma_qp_offset=-2 / threads=12 / lookahead_threads=2 / sliced_threads=0 / nr=0 / decimate=0 / interlaced=0 / bluray_compat=0 / constrained_intra=0 / bframes=7 / b_pyramid=2 / b_adapt=2 / b_bias=0 / direct=3 / weightb=1 / open_gop=0 / weightp=2 / keyint=240 / keyint_min=24 / scenecut=40 / intra_refresh=0 / rc=2pass / mbtree=0 / bitrate=3718 / ratetol=1.0 / qcomp=0.60 / qpmin=0 / qpmax=69 / qpstep=4 / cplxblur=20.0 / qblur=0.5 / ip_ratio=1.40 / pb_ratio=1.30 / aq=1:0.70
Язык : Russian

Аудио
Идентификатор : 2
Формат : AC-3
Формат/Информация : Audio Coding 3
Расширение режима : CM (complete main)
Параметр Endianness формата : Big
Идентификатор кодека : A_AC3
Продолжительность : 1 ч. 46 м.
Вид битрейта : Постоянный
Битрейт : 448 Кбит/сек
Каналы : 6 каналов
Расположение каналов : Front: L C R, Side: L R, LFE
Частота : 48,0 КГц
Битовая глубина : 16 бит
Метод сжатия : С потерями
Размер потока : 342 Мбайт (11%)
Заголовок : Rus
Язык : Russian

Меню
00:00:00.000 : :Chapter 01
00:06:37.500 : :Chapter 02
00:17:28.333 : :Chapter 03
00:28:03.750 : :Chapter 04
00:36:58.916 : :Chapter 05
00:47:06.583 : :Chapter 06
00:56:38.291 : :Chapter 07
01:05:31.666 : :Chapter 08
01:14:49.541 : :Chapter 09
01:24:20.750 : :Chapter 10
01:34:23.000 : :Chapter 11
01:41:27.208 : :Chapter 12
01:46:42.083 : :Chapter 13
x264 [info]: frame I:2088 Avg QP:15.24 size:100208
x264 [info]: frame P:36672 Avg QP:18.02 size: 36256
x264 [info]: frame B:114896 Avg QP:19.92 size: 12502
x264 [info]: consecutive B-frames: 3.3% 5.4% 9.9% 22.4% 18.3% 34.8% 4.8% 1.0%



   Похожие торренты   Торрент   Размер 
В этой теме нет новых непрочитанных сообщений. Кухня в Париже (2014) BDRip 720p | Лицензия

575 | 143

5.28 ГБ

В этой теме нет новых непрочитанных сообщений. Кухня в Париже (2014) BDRip 720p | Лицензия

276 | 88

4.4 ГБ

В этой теме нет новых непрочитанных сообщений. Кухня в Париже (2014) BDRip 720p от Leonardo and Scarabey

530 | 15

2.82 ГБ

В этой теме нет новых непрочитанных сообщений. Кухня в Париже (2014) WEB-DL 720p | iTunes

1097 | 5

3.29 ГБ

В этой теме нет новых непрочитанных сообщений. Кухня в Париже (2014) BDRip-AVC от Leonardo and Scarabey

159 | 15

1.7 ГБ

В этой теме нет новых непрочитанных сообщений. Кухня в Париже (2014) BDRip-AVC от HELLYWOOD | Лицензия

580 | 13

1.46 ГБ

В этой теме нет новых непрочитанных сообщений. Кухня в Париже (2014) BDRip 1080p | Лицензия

411 | 146

9.41 ГБ




Вы не можете начинать темы
Вы не можете отвечать на сообщения
Вы не можете редактировать свои сообщения
Вы не можете удалять свои сообщения
Вы не можете добавлять вложения

Перейти:  
Для Мосгорсуда, Роскомнадзора и рекламодателей: mosgorsud-torrent[собачка]yandex.ru
 Вход
ppkBB3cker v.2 © 2008-2014 @ PPK
[ Time : 2.734s | 18 Queries | GZIP : Off ]

cron