img image001 image001 image001 image001 image001 image001 image001 image001 image001 image001 image001 image001 image001 image001 image001

Planets Sun Sun Sun
Статистика раздачи
Автор: Nickolas3434 | Размер: 1.73 ГБ | Добавлен: 25 июн 2014
Раздают: 1990    Качают: 111
Скачать торрент
Скачать торрент
Описание торрента

СообщениеДобавлено: 25 июн 2014 

Информация о фильме
Оригинальное название: Восьмерка
Год выпуска: 2013
Жанр: Боевик, мелодрама
Выпущено: Россия, ТПО Рок
Режиссер: Алексей Учитель
В ролях: Артур Смольянинов, Вильма Кутавичюте, Алексей Манцыгин, Александр Новин, Артем Быстров, Павел Ворожцов, Захар Прилепин, Ирина Пегова, Сергей Пускепалис, Владимир Пирожок

О фильме: Фильм рассказывает об истории жизни четырёх друзей - эдаких "мушкетёрах современности". Ребята отслужили в армии, а вернувшись домой, приняли единогласное решение о службе в ОМОНе. Любовь без тормозов становится причиной смертельной схватки между четверкой молодых парней из спецназа и бандой, которая держит в страхе весь город.



Файл
Качество: WEB-DLRip (AVC)
Видео: MPEG-4 AVC, 2634 Кбит/с, 1024x576
Аудио: AC3, 6 ch, 384 Кбит/с
Продолжительность: 01:21:50
Язык: Русский

General
Unique ID : 176373934854098665370396405333473524758 (0x84B0625E809921BF98360A913EEA7C16)
Complete name : C:Vosmerka.2014.O.WEB-DLRip.AVC.ExKinoRay.mkv
Format : Matroska
Format version : Version 2
File size : 1.73 GiB
Duration : 1h 21mn
Overall bit rate : 3 019 Kbps
Movie name : Vosmerka 2014 from ExKinoRay
Encoded date : UTC 2014-06-19 03:08:56
Writing application : mkvmerge v4.9.1 ('Ich will') built on Jul 11 2011 23:53:15
Writing library : libebml v1.2.1 + libmatroska v1.1.1

Video
ID : 1
Format : AVC
Format/Info : Advanced Video Codec
Format profile : High@L4.1
Format settings, CABAC : Yes
Format settings, ReFrames : 9 frames
Codec ID : V_MPEG4/ISO/AVC
Duration : 1h 21mn
Bit rate : 2 634 Kbps
Width : 1 024 pixels
Height : 576 pixels
Display aspect ratio : 16:9
Frame rate mode : Constant
Frame rate : 25.000 fps
Color space : YUV
Chroma subsampling : 4:2:0
Bit depth : 8 bits
Scan type : Progressive
Bits/(Pixel*Frame) : 0.179
Stream size : 1.47 GiB (85%)
Title : Enigma-Vladislav71
Writing library : x264 core 116 r2044 392e762
Encoding settings : cabac=1 / ref=9 / deblock=1:-3:-3 / analyse=0x3:0x113 / me=umh / subme=10 / psy=1 / psy_rd=1.00:0.20 / mixed_ref=1 / me_range=32 / chroma_me=1 / trellis=2 / 8x8dct=1 / cqm=0 / deadzone=21,11 / fast_pskip=0 / chroma_qp_offset=-3 / threads=12 / sliced_threads=0 / nr=0 / decimate=0 / interlaced=0 / bluray_compat=0 / constrained_intra=0 / bframes=9 / b_pyramid=2 / b_adapt=2 / b_bias=0 / direct=3 / weightb=1 / open_gop=0 / weightp=2 / keyint=250 / keyint_min=25 / scenecut=40 / intra_refresh=0 / rc=2pass / mbtree=0 / bitrate=2634 / ratetol=1.0 / qcomp=0.60 / qpmin=0 / qpmax=69 / qpstep=4 / cplxblur=20.0 / qblur=0.5 / ip_ratio=1.40 / pb_ratio=1.30 / aq=1:1.00
Default : Yes
Forced : No

Audio
ID : 2
Format : AC-3
Format/Info : Audio Coding 3
Mode extension : CM (complete main)
Format settings, Endianness : Big
Codec ID : A_AC3
Duration : 1h 21mn
Bit rate mode : Constant
Bit rate : 384 Kbps
Channel(s) : 6 channels
Channel positions : Front: L C R, Side: L R, LFE
Sampling rate : 48.0 KHz
Bit depth : 16 bits
Compression mode : Lossy
Stream size : 225 MiB (13%)
Language : Russian
Default : Yes
Forced : No

Menu
00:00:00.000 : en:Глава 1
00:05:10.000 : en:Глава 2
00:10:48.000 : en:Глава 3
00:14:58.000 : en:Глава 4
00:19:45.000 : en:Глава 5
00:25:49.000 : en:Глава 6
00:30:16.000 : en:Глава 7
00:35:20.000 : en:Глава 8
00:39:32.000 : en:Глава 9
00:44:07.000 : en:Глава 10
00:49:57.000 : en:Глава 11
00:55:52.000 : en:Глава 12
01:02:33.000 : en:Глава 13
01:08:11.000 : en:Глава 14
01:13:06.000 : en:Глава 15






Релиз от:

Авторы релиза:



   Похожие торренты   Торрент   Размер 
В этой теме нет новых непрочитанных сообщений. Восьмерка (2014) WEB-DLRip | iTunes

4378 | 305

1.37 ГБ

В этой теме нет новых непрочитанных сообщений. Восьмерка (2014) WEB-DLRip от Scarabey | iTunes

1294 | 100

1.45 ГБ

В этой теме нет новых непрочитанных сообщений. Восьмерка (2014) WEB-DLRip от Scarabey | iTunes

329 | 17

743.67 МБ

В этой теме нет новых непрочитанных сообщений. Восьмерка (2014) WEB-DLRip-AVC от ExKinoRay | Лицензия

1965 | 94

1.76 ГБ

В этой теме нет новых непрочитанных сообщений. Восьмерка (2014) WEB-DL 720p от ExKinoRay | Лицензия

629 | 41

2.59 ГБ

В этой теме нет новых непрочитанных сообщений. Восьмерка (2014) WEB-DLRip

218 | 15

748.19 МБ

В этой теме нет новых непрочитанных сообщений. Неукротимая восьмерка / Непобедимая восьмерка / Tian long ba jiang / Invincible Eight (1971) DVDRip от KinoZalSat

3 | 3

1.37 ГБ




Вы не можете начинать темы
Вы не можете отвечать на сообщения
Вы не можете редактировать свои сообщения
Вы не можете удалять свои сообщения
Вы не можете добавлять вложения

Перейти:  
Для Мосгорсуда, Роскомнадзора и рекламодателей: mosgorsud-torrent[собачка]yandex.ru
 Вход
ppkBB3cker v.2 © 2008-2014 @ PPK
[ Time : 0.063s | 14 Queries | GZIP : Off ]

Торрент трекер RUTOR.IN, Не можете зайти на rutor.org? Какой новый адрес рутор? Какое зеркало рутор? Не работает rutor.org и зеркала? Тогда наш торрент специально для вас. Rutor.in неофициальное зеркало rutor. В случае если у Вас заблокирован rutor или вдруг Вы не можете на него зайти, то Вы без труда сможете скачать бесплатно и без рекламы последние новинки кино, игр, сериалов и прочего у нас, на Rutor.in. Не нужно использовать прокси, чтобы зайти на рутор, достаточно воспользоваться нашим ресурсом. Все новые фильмы, игры, сериалы, книги и музыка за 2013 и 2014 годы через торрент бесплатно. Скачивайте фильмы в хорошем качестве, игры для пк, xbox, playstation без регистрации. У нас вы найдете новые Зарубежные сериалы и Русские сериалы 2013, 2014, 2015 годов. Оставайтесь с нами, качайте любимые фильмы, игры, сериалы, книги и музыку.