img image001 image001 image001 image001 image001 image001 image001 image001 image001 image001 image001 image001 image001 image001 image001

Planets Sun Sun Sun
Статистика раздачи
Автор: Nickolas3434 | Размер: 989.89 МБ | Добавлен: 25 июн 2014
Раздают: 470    Качают: 17
Скачать торрент
Скачать торрент
Описание торрента

СообщениеДобавлено: 25 июн 2014 

Информация о фильме
Название: Решала
Год выпуска: 2012
Жанр: Криминальная драма
Выпущено: Россия
Режиссер: Роман Асхаев
В ролях: Александр Фролов, Константин Озеров, Алина Намсараева, Мосэ Куртанидзэ, Руслан Балакшиев, Лариса Иринцеева

О фильме: Фильм о двух братьях. Старший — юрист, успешный человек, к нему обращаются за решением различных вопросов. Но ему предстоит решить самую главную задачу своей жизни-вытащить младшего брата из криминальной передряги.



Файл
Качество: WEB-DLRip (AVC)
Видео: MPEG-4 AVC, 1493 Кбит/с, 1024x434
Аудио: AC3, 2 ch, 256 Кбит/с
Продолжительность: 01:19:10
Язык: Русский

General
Unique ID : 200032469667812702042760978576346423613 (0x967CDA31882C3D3AA81FAC6011F7A13D)
Complete name : C:Reshala.2012.O.WEB-DLRip.AVC.ExKinoRay.mkv
Format : Matroska
Format version : Version 2
File size : 990 MiB
Duration : 1h 19mn
Overall bit rate : 1 748 Kbps
Movie name : Reshala 2012 from ExKinoRay
Encoded date : UTC 2014-06-19 15:45:21
Writing application : mkvmerge v4.9.1 ('Ich will') built on Jul 11 2011 23:53:15
Writing library : libebml v1.2.1 + libmatroska v1.1.1

Video
ID : 1
Format : AVC
Format/Info : Advanced Video Codec
Format profile : High@L4.1
Format settings, CABAC : Yes
Format settings, ReFrames : 9 frames
Codec ID : V_MPEG4/ISO/AVC
Duration : 1h 19mn
Bit rate : 1 493 Kbps
Width : 1 024 pixels
Height : 434 pixels
Display aspect ratio : 2.35:1
Frame rate mode : Constant
Frame rate : 24.000 fps
Color space : YUV
Chroma subsampling : 4:2:0
Bit depth : 8 bits
Scan type : Progressive
Bits/(Pixel*Frame) : 0.140
Stream size : 825 MiB (83%)
Title : Enigma
Writing library : x264 core 116 r2044 392e762
Encoding settings : cabac=1 / ref=9 / deblock=1:-2:-2 / analyse=0x3:0x113 / me=umh / subme=10 / psy=1 / psy_rd=1.00:0.20 / mixed_ref=1 / me_range=32 / chroma_me=1 / trellis=2 / 8x8dct=1 / cqm=0 / deadzone=21,11 / fast_pskip=0 / chroma_qp_offset=-3 / threads=12 / sliced_threads=0 / nr=0 / decimate=0 / interlaced=0 / bluray_compat=0 / constrained_intra=0 / bframes=9 / b_pyramid=2 / b_adapt=2 / b_bias=0 / direct=3 / weightb=1 / open_gop=0 / weightp=2 / keyint=240 / keyint_min=24 / scenecut=40 / intra_refresh=0 / rc=2pass / mbtree=0 / bitrate=1493 / ratetol=1.0 / qcomp=0.60 / qpmin=0 / qpmax=69 / qpstep=4 / cplxblur=20.0 / qblur=0.5 / ip_ratio=1.40 / pb_ratio=1.30 / aq=1:1.00
Default : Yes
Forced : No

Audio
ID : 2
Format : AC-3
Format/Info : Audio Coding 3
Mode extension : CM (complete main)
Format settings, Endianness : Big
Codec ID : A_AC3
Duration : 1h 19mn
Bit rate mode : Constant
Bit rate : 256 Kbps
Channel(s) : 2 channels
Channel positions : Front: L R
Sampling rate : 48.0 KHz
Bit depth : 16 bits
Compression mode : Lossy
Stream size : 145 MiB (15%)
Language : Russian
Default : Yes
Forced : No






Релиз от:

Автор релиза:



   Похожие торренты   Торрент   Размер 
В этой теме нет новых непрочитанных сообщений. Решала (2012) WEB-DLRip

1019 | 42

701.99 МБ

В этой теме нет новых непрочитанных сообщений. Решала (2012) WEB-DLRip

5933 | 152

1.37 ГБ

В этой теме нет новых непрочитанных сообщений. Решала Дилогия (2012-2015) WEB-DLRip

788 | 85

2.73 ГБ

В этой теме нет новых непрочитанных сообщений. Решала 2 (2015) WEB-DLRip от Bathory

1211 | 117

1.46 ГБ

В этой теме нет новых непрочитанных сообщений. Решала 2 (Роман Асхаев) [2015, драма, криминал, WEB-DLRip]

1008 | 55

1.37 ГБ

В этой теме нет новых непрочитанных сообщений. Решала (2012) WEB-DL 720p

2064 | 142

2.27 ГБ

В этой теме нет новых непрочитанных сообщений. Решала 2 (2015) WEBRip

5034 | 211

699.72 МБ




Вы не можете начинать темы
Вы не можете отвечать на сообщения
Вы не можете редактировать свои сообщения
Вы не можете удалять свои сообщения
Вы не можете добавлять вложения

Перейти:  
Для Мосгорсуда, Роскомнадзора и рекламодателей: mosgorsud-torrent[собачка]yandex.ru
 Вход
ppkBB3cker v.2 © 2008-2014 @ PPK
[ Time : 0.030s | 15 Queries | GZIP : Off ]

Торрент трекер RUTOR.IN, Не можете зайти на rutor.org? Какой новый адрес рутор? Какое зеркало рутор? Не работает rutor.org и зеркала? Тогда наш торрент специально для вас. Rutor.in неофициальное зеркало rutor. В случае если у Вас заблокирован rutor или вдруг Вы не можете на него зайти, то Вы без труда сможете скачать бесплатно и без рекламы последние новинки кино, игр, сериалов и прочего у нас, на Rutor.in. Не нужно использовать прокси, чтобы зайти на рутор, достаточно воспользоваться нашим ресурсом. Все новые фильмы, игры, сериалы, книги и музыка за 2013 и 2014 годы через торрент бесплатно. Скачивайте фильмы в хорошем качестве, игры для пк, xbox, playstation без регистрации. У нас вы найдете новые Зарубежные сериалы и Русские сериалы 2013, 2014, 2015 годов. Оставайтесь с нами, качайте любимые фильмы, игры, сериалы, книги и музыку.