img image001 image001 image001 image001 image001 image001 image001 image001 image001 image001 image001 image001 image001 image001 image001

Planets Sun Sun Sun
Статистика раздачи
Автор: Nickolas3434 | Размер: 2.19 ГБ | Добавлен: 25 июн 2014
Раздают: 90    Качают: 18
Скачать торрент
Скачать торрент
Описание торрента

СообщениеДобавлено: 25 июн 2014 

Информация о фильме
Название: Приключения Али-Бабы и сорока разбойников
Оригинальное название: Alibaba Aur 40 Chor
Год выхода: 1979
Жанр: приключения, мелодрама, семейный
Режиссер: Латиф Файзиев, Умеш Мехра
В ролях: Дхармендра, Хема Малини, Зинат Аман, Прем Чопра, Фрунзик Мкртчян, Закир Мухамеджанов, Софико Чиаурели, Мадан Пури, Якуб Ахмедов, Ролан Быков

Описание: Совместное советско-индийское производство по мотивам сказок «1000 и одной ночи». История о добром и благородном простолюдине Али-Бабе, который пытается разыскать пропавшего 20 лет назад отца. На пути ему предстоит пережить немало приключений, спасти индийскую принцессу и победить самого Абу-Хасана, предводителя разбойников, наводящего ужас на всю страну.



Страна: СССР, Индия
Продолжительность: 02:33:23
Перевод #1: Профессиональный (Многоголосый, Закадровый)
Перевод #2: Хинди (Оригинал)

Файл
Формат: MKV
Качество: DVDRip-AVC (Источник: DVD-9)
Видео: 704x352@704x298 (2.35:1), 23.976 fps, 1623 kbps, 0.273 bit/pixel
Аудио #1: AC-3, 2 ch, 192 kbps (Многоголосый)
Аудио #2: AC-3, 2 ch, 224 kbps (Хинди Оригинал)
Субтитры: нет
Скачать: Семпл





General
Unique ID : 174695632053161592437186232122506625200 (0x836D27A708A88AB18BC868C2CC7A40B0)
Complete name : Alibaba.Aur.40.Chor.1979.DVDRip.AVC.mkv
Format : Matroska
Format version : Version 2
File size : 2.19 GiB
Duration : 2h 33mn
Overall bit rate : 2 041 Kbps
Encoded date : UTC 2014-06-12 14:33:15
Writing application : mkvmerge v5.6.0 ('Kenya Kane') built on May 27 2012 16:44:04
Writing library : libebml v1.2.3 + libmatroska v1.3.0

Video
ID : 1
Format : AVC
Format/Info : Advanced Video Codec
Format profile : High@L4.1
Format settings, CABAC : Yes
Format settings, ReFrames : 11 frames
Codec ID : V_MPEG4/ISO/AVC
Duration : 2h 33mn
Bit rate : 1 623 Kbps
Width : 704 pixels
Height : 352 pixels
Display aspect ratio : 2.35:1
Original display aspect ratio : 2.40:1
Frame rate mode : Constant
Frame rate : 23.976 fps
Color space : YUV
Chroma subsampling : 4:2:0
Bit depth : 8 bits
Scan type : Progressive
Bits/(Pixel*Frame) : 0.273
Stream size : 1.70 GiB (78%)
Title : Приключения Али-Бабы и Сорока Разбойников / Alibaba Aur 40 Chor (1979) (Полная Версия)
Writing library : x264 core 142 r2409 d6b4e63
Encoding settings : cabac=1 / ref=11 / deblock=1:-2:-2 / analyse=0x3:0x113 / me=umh / subme=11 / psy=1 / psy_rd=1.00:0.00 / mixed_ref=1 / me_range=32 / chroma_me=1 / trellis=2 / 8x8dct=1 / cqm=0 / deadzone=21,11 / fast_pskip=1 / chroma_qp_offset=-2 / threads=6 / lookahead_threads=1 / sliced_threads=0 / nr=0 / decimate=1 / interlaced=0 / bluray_compat=0 / constrained_intra=0 / bframes=9 / b_pyramid=2 / b_adapt=2 / b_bias=0 / direct=3 / weightb=1 / open_gop=0 / weightp=2 / keyint=240 / keyint_min=23 / scenecut=40 / intra_refresh=0 / rc=2pass / mbtree=0 / bitrate=1623 / ratetol=1.0 / qcomp=0.60 / qpmin=0 / qpmax=69 / qpstep=4 / cplxblur=20.0 / qblur=0.5 / ip_ratio=1.40 / pb_ratio=1.30 / aq=1:1.00
Language : Hindi
Default : Yes
Forced : No
Color primaries : BT.601 PAL
Transfer characteristics : BT.709
Matrix coefficients : BT.601

Audio #1
ID : 2
Format : AC-3
Format/Info : Audio Coding 3
Mode extension : CM (complete main)
Format settings, Endianness : Big
Codec ID : A_AC3
Duration : 2h 33mn
Bit rate mode : Constant
Bit rate : 192 Kbps
Channel(s) : 2 channels
Channel positions : Front: L R
Sampling rate : 48.0 KHz
Bit depth : 16 bits
Compression mode : Lossy
Stream size : 211 MiB (9%)
Title : Многоголосый 2.0
Language : Russian
Default : Yes
Forced : No

Audio #2
ID : 3
Format : AC-3
Format/Info : Audio Coding 3
Mode extension : CM (complete main)
Format settings, Endianness : Big
Codec ID : A_AC3
Duration : 2h 33mn
Bit rate mode : Constant
Bit rate : 224 Kbps
Channel(s) : 2 channels
Channel positions : Front: L R
Sampling rate : 48.0 KHz
Bit depth : 16 bits
Compression mode : Lossy
Stream size : 246 MiB (11%)
Title : Хинди 2.0 (Оригинал)
Language : Hindi
Default : No
Forced : No



   Похожие торренты   Торрент   Размер 
В этой теме нет новых непрочитанных сообщений. Приключения Али-Бабы и сорока разбойников (1979) DVDRip

150 | 25

2.19 ГБ

В этой теме нет новых непрочитанных сообщений. Приключения Али-Бабы и сорока разбойников (1979) DVDRip-AVC

156 | 31

1.45 ГБ

В этой теме нет новых непрочитанных сообщений. Приключения Алибабы и 40 разбойников / Alibaba Aur 40 Chor (1980) DVDRip от Torrent-Xzona

20 | 3

2.06 ГБ

В этой теме нет новых непрочитанных сообщений. Али-баба и сорок разбойников / Alibaba and the Forty Theives (1971) DVDRip

4 | 4

374.84 МБ

В этой теме нет новых непрочитанных сообщений. Барьер / Barierata (1979) DVDRip | полная версия | Dub + Sub

72 | 25

1.46 ГБ

В этой теме нет новых непрочитанных сообщений. Али-Баба и сорок разбойников (1979) DVDRip

92 | 36

1.09 ГБ

В этой теме нет новых непрочитанных сообщений. Неведомый враг / Jaani Dushman (1979) WEBRip-AVC | L1 | Полная версия

16 | 7

994.42 МБ




Вы не можете начинать темы
Вы не можете отвечать на сообщения
Вы не можете редактировать свои сообщения
Вы не можете удалять свои сообщения
Вы не можете добавлять вложения

Перейти:  
Для Мосгорсуда, Роскомнадзора и рекламодателей: mosgorsud-torrent[собачка]yandex.ru
 Вход
ppkBB3cker v.2 © 2008-2014 @ PPK
[ Time : 0.026s | 15 Queries | GZIP : Off ]

Торрент трекер RUTOR.IN, Не можете зайти на rutor.org? Какой новый адрес рутор? Какое зеркало рутор? Не работает rutor.org и зеркала? Тогда наш торрент специально для вас. Rutor.in неофициальное зеркало rutor. В случае если у Вас заблокирован rutor или вдруг Вы не можете на него зайти, то Вы без труда сможете скачать бесплатно и без рекламы последние новинки кино, игр, сериалов и прочего у нас, на Rutor.in. Не нужно использовать прокси, чтобы зайти на рутор, достаточно воспользоваться нашим ресурсом. Все новые фильмы, игры, сериалы, книги и музыка за 2013 и 2014 годы через торрент бесплатно. Скачивайте фильмы в хорошем качестве, игры для пк, xbox, playstation без регистрации. У нас вы найдете новые Зарубежные сериалы и Русские сериалы 2013, 2014, 2015 годов. Оставайтесь с нами, качайте любимые фильмы, игры, сериалы, книги и музыку.