img image001 image001 image001 image001 image001 image001 image001 image001 image001 image001 image001 image001 image001 image001 image001

Planets Sun Sun Sun
Статистика раздачи
Автор: Nickolas3434 | Размер: 2.6 ГБ | Добавлен: 25 июн 2014
Раздают: 5663    Качают: 292
Скачать торрент
Скачать торрент
Описание торрента

СообщениеДобавлено: 25 июн 2014 

Информация о фильме
Название: Подарок с характером (2014) WEBRip 720p
Год выхода: 2014
Жанр: семейный, приключения, комедия
Режиссер: Карен Оганесян
В ролях: Михаил Галустян, Артем Фадеев, Фёдор Бондарчук, Екатерина Климова, Николай Валуев, Ирина Безрукова, Катерина Шпица, Алексей Макаров, Константин Юшкевич, Инга Стрелкова-Оболдина

О фильме:
Быть пандой весело! Но не Мише, который вынужден работать в костюме панды на детских праздниках. Ему тридцать лет, он живет в крохотной однушке на окраине Москвы, и у него нет серьезной работы. Все было так, пока его не позвали на день рождения к сыну олигарха. Артему девять лет, и у него есть тайный план, помочь осуществить который может только Миша. Мальчик и панда отправляются в путешествие через всю страну, то и дело вляпываясь в невероятные ситуации.



Страна: Россия
Студия: Fresh Films
Продолжительность: 01:21:16
Перевод: Оригинал

Файл
Кодек: h.264 (MKV)
Качество: WEBRip 720p
Видео: AVC, 1280 x 680, ~4240 kbps
Звук: AC-3, 2 ch, 256 kbps
Субтитры: нет

Семпл

Общее
Уникальный идентификатор : 180043707848772139423360323701995697143 (0x87732825A599B1E294AD53FFB0B773F7)
Полное имя : G: Подарок с характером (2014)Без названияПодарок с характером (2014) WEBRip 720p.mkv
Формат : Matroska
Версия формата : Version 4 / Version 2
Размер файла : 2,60 Гбайт
Продолжительность : 1 ч. 21 м.
Общий поток : 4588 Кбит/сек
Дата кодирования : UTC 2014-06-23 03:18:35
Программа кодирования : mkvmerge v6.9.1 ('Blue Panther') 64bit built on Apr 18 2014 18:23:38
Библиотека кодирования : libebml v1.3.0 + libmatroska v1.4.1

Видео
Идентификатор : 1
Формат : AVC
Формат/Информация : Advanced Video Codec
Профиль формата : Main@L5.1
Параметр CABAC формата : Да
Параметр ReFrames формата : 1 кадр
Идентификатор кодека : V_MPEG4/ISO/AVC
Продолжительность : 1 ч. 21 м.
Битрейт : 4240 Кбит/сек
Ширина : 1280 пикселей
Высота : 680 пикселей
Соотношение сторон : 1,882
Режим частоты кадров : Постоянный
Частота кадров : 25,000 кадров/сек
Цветовое пространство : YUV
Субдискретизация насыщенности : 4:2:0
Битовая глубина : 8 бит
Тип развёртки : Прогрессивная
Бит/(Пиксели*Кадры) : 0.195
Размер потока : 2,41 Гбайт (92%)
Default : Да
Forced : Нет

Аудио
Идентификатор : 2
Формат : AC-3
Формат/Информация : Audio Coding 3
Расширение режима : CM (complete main)
Параметр Endianness формата : Big
Идентификатор кодека : A_AC3
Продолжительность : 1 ч. 21 м.
Вид битрейта : Постоянный
Битрейт : 256 Кбит/сек
Каналы : 2 канала
Расположение каналов : Front: L R
Частота : 48,0 КГц
Битовая глубина : 16 бит
Метод сжатия : С потерями
Размер потока : 149 Мбайт (6%)
Default : Да
Forced : Нет



   Похожие торренты   Торрент   Размер 
В этой теме нет новых непрочитанных сообщений. Подарок с характером (2014) WEBRip

5834 | 67

1.37 ГБ

В этой теме нет новых непрочитанных сообщений. Подарок с характером (2014) WEBRip

311 | 10

699.59 МБ

В этой теме нет новых непрочитанных сообщений. Подарок с характером (2014) BDRip 720p

1022 | 53

2.53 ГБ

В этой теме нет новых непрочитанных сообщений. Подарок с характером (2014) BDRip 720p от HDClub

108 | 10

4.38 ГБ

В этой теме нет новых непрочитанных сообщений. Подарок с характером (2014) BDRip-AVC

232 | 76

1.46 ГБ

В этой теме нет новых непрочитанных сообщений. Подарок с характером (2014) BDRip-AVC

347 | 20

745.56 МБ

В этой теме нет новых непрочитанных сообщений. Подарок с характером (2014) BDRip-AVC от HQCLUB

132 | 7

2.1 ГБ




Вы не можете начинать темы
Вы не можете отвечать на сообщения
Вы не можете редактировать свои сообщения
Вы не можете удалять свои сообщения
Вы не можете добавлять вложения

Перейти:  
Для Мосгорсуда, Роскомнадзора и рекламодателей: mosgorsud-torrent[собачка]yandex.ru
 Вход
ppkBB3cker v.2 © 2008-2014 @ PPK
[ Time : 0.092s | 15 Queries | GZIP : Off ]

Торрент трекер RUTOR.IN, Не можете зайти на rutor.org? Какой новый адрес рутор? Какое зеркало рутор? Не работает rutor.org и зеркала? Тогда наш торрент специально для вас. Rutor.in неофициальное зеркало rutor. В случае если у Вас заблокирован rutor или вдруг Вы не можете на него зайти, то Вы без труда сможете скачать бесплатно и без рекламы последние новинки кино, игр, сериалов и прочего у нас, на Rutor.in. Не нужно использовать прокси, чтобы зайти на рутор, достаточно воспользоваться нашим ресурсом. Все новые фильмы, игры, сериалы, книги и музыка за 2013 и 2014 годы через торрент бесплатно. Скачивайте фильмы в хорошем качестве, игры для пк, xbox, playstation без регистрации. У нас вы найдете новые Зарубежные сериалы и Русские сериалы 2013, 2014, 2015 годов. Оставайтесь с нами, качайте любимые фильмы, игры, сериалы, книги и музыку.