img image001 image001 image001 image001 image001 image001 image001 image001 image001 image001 image001 image001 image001 image001 image001

Planets Sun Sun Sun
Статистика раздачи
Автор: Nickolas3434 | Размер: 1.46 ГБ | Добавлен: 28 июн 2014
Раздают: 85    Качают: 25
Скачать торрент
Скачать торрент
Описание торрента

СообщениеДобавлено: 28 июн 2014 

Страна: Россия
Производство: СИВ

Жанр: мелодрама, комедия
Год выпуска: 1998
Продолжительность: 01:44:14

Перевод: не требуется
Оригинальная аудиодорожка: русский
Cубтитры: нет

Режиссер: Дмитрий Астрахан

В ролях:
Леонид Ярмольник, Анна Легчилова, Александр Ефремов, Ольга Самошина, Ольга Беляева, Геннадий Свирь, Александр Коваленко, Леонид Клунный, Жан Климович, Людмила Былинская, Виктор Ковальчук, Женя Альшиц, Олег Корчиков, Людмила Мацкевич, Валентина Белько, Ирина Жангарова, Людмила Жданович, Алексей Колокольцев, Виктория Ершова, Александр Кашперов, Алексей Турович...

Описание:
Когда-то, 20 лет назад, рок-группа «Дядя Алик» гремела на всю страну, а ее лидер по имени Алик купался в лучах славы. Теперь о них никто не вспоминает, и бывшие знаменитости подрабатывают то на свадьбах, то в клубе «Старый трамвай», а то и просто — в подземном переходе. Но однажды Алик встречает своего старого знакомого Мишу, который предлагает устроить его концерты в Америке. Все отлично, только одна неприятность — Алик разведен, а неженатым в посольстве не любят выдавать визы. Миша предлагает Алику срочно найти себе жену. В то же время милая учительница английского языка Ляля проходит собеседование в фирме своей приятельницы, которая помогает образованным девушкам найти престижную работу. Ляля хороша абсолютно всем, кроме одного: она не замужем…





Исходник: DVD9 R5
Тип релиза: DVDRip
Контейнер: AVI

Видео: 688x416 (1,654:1), 25 fps, XviD ~ 1799 kbps avg, 0.251 bit/pixel
Аудио: 48 kHz, Dolby Digital AC3 2.0, 192 kbps

Раздача от:
Общее
Полное имя : Perekrestok.1998.DVDRip_[New-team]_by_AVP_Studio.avi
Формат : AVI
Формат/Информация : Audio Video Interleave
Размер файла : 1,46 Гбайт
Продолжительность : 1 ч. 44 м.
Общий поток : 2001 Кбит/сек
Программа кодирования : VirtualDubModRus 1.5.10.2 (build 2542/release)
Библиотека кодирования : VirtualDubMod build 2542/release

Видео
Идентификатор : 0
Формат : MPEG-4 Visual
Профиль формата : Advanced Simple@L5
Параметр BVOP формата : 1
Параметр QPel формата : Нет
Параметр GMC формата : Без точки перехода
Параметр матрицы формата : Выборочная
Идентификатор кодека : XVID
Идентификатор кодека/Подсказка : XviD
Продолжительность : 1 ч. 44 м.
Битрейт : 1799 Кбит/сек
Ширина : 688 пикселей
Высота : 416 пикселей
Соотношение сторон : 1,654
Частота кадров : 25,000 кадров/сек
Цветовое пространство : YUV
Субдискретизация насыщенности : 4:2:0
Битовая глубина : 8 бит
Тип развёртки : Прогрессивная
Метод сжатия : С потерями
Бит/(Пиксели*Кадры) : 0.251
Размер потока : 1,31 Гбайт (90%)
Библиотека кодирования : XviD 73

Аудио
Идентификатор : 1
Формат : AC-3
Формат/Информация : Audio Coding 3
Расширение режима : CM (complete main)
Параметр Endianness формата : Big
Идентификатор кодека : 2000
Продолжительность : 1 ч. 44 м.
Вид битрейта : Постоянный
Битрейт : 192 Кбит/сек
Каналы : 2 канала
Расположение каналов : Front: L R
Частота : 48,0 КГц
Битовая глубина : 16 бит
Метод сжатия : С потерями
Размер потока : 143 Мбайт (10%)
Выравнивание : Разделение по промежуткам
Продолжительность промежутка : 40 мс. (1,00 видеокадр)
Время предзагрузки промежутка : 500 мс





   Похожие торренты   Торрент   Размер 
В этой теме нет новых непрочитанных сообщений. Перекрёсток (1998) DVDRip от New-Team

59 | 27

744.98 МБ

В этой теме нет новых непрочитанных сообщений. Перекрёсток (1998) DVDRip-AVC от New-Team

23 | 7

1.46 ГБ

В этой теме нет новых непрочитанных сообщений. Перекрёсток (1998) DVDRip от ExKinoRay

33 | 13

1.37 ГБ

В этой теме нет новых непрочитанных сообщений. Перекресток (1998) DVDRip-AVC от BT-Club

23 | 5

1.38 ГБ

В этой теме нет новых непрочитанных сообщений. Перекресток (1998) TVRip

18 | 5

1.71 ГБ

В этой теме нет новых непрочитанных сообщений. Перекресток / Crossroads (1986) HDTVRip-AVC от New-Team | P

64 | 5

744.81 МБ

В этой теме нет новых непрочитанных сообщений. Перекресток в джунглях / Jungle Junction [S01, 02] (2009-2011) SATRip от New-Team | P

76 | 12

11.29 ГБ




Вы не можете начинать темы
Вы не можете отвечать на сообщения
Вы не можете редактировать свои сообщения
Вы не можете удалять свои сообщения
Вы не можете добавлять вложения

Перейти:  
Для Мосгорсуда, Роскомнадзора и рекламодателей: mosgorsud-torrent[собачка]yandex.ru
 Вход
ppkBB3cker v.2 © 2008-2014 @ PPK
[ Time : 0.031s | 16 Queries | GZIP : Off ]

Торрент трекер RUTOR.IN, Не можете зайти на rutor.org? Какой новый адрес рутор? Какое зеркало рутор? Не работает rutor.org и зеркала? Тогда наш торрент специально для вас. Rutor.in неофициальное зеркало rutor. В случае если у Вас заблокирован rutor или вдруг Вы не можете на него зайти, то Вы без труда сможете скачать бесплатно и без рекламы последние новинки кино, игр, сериалов и прочего у нас, на Rutor.in. Не нужно использовать прокси, чтобы зайти на рутор, достаточно воспользоваться нашим ресурсом. Все новые фильмы, игры, сериалы, книги и музыка за 2013 и 2014 годы через торрент бесплатно. Скачивайте фильмы в хорошем качестве, игры для пк, xbox, playstation без регистрации. У нас вы найдете новые Зарубежные сериалы и Русские сериалы 2013, 2014, 2015 годов. Оставайтесь с нами, качайте любимые фильмы, игры, сериалы, книги и музыку.
cron