img image001 image001 image001 image001 image001 image001 image001 image001 image001 image001 image001 image001 image001 image001 image001

Planets Sun Sun Sun
Статистика раздачи
Автор: Nickolas3434 | Размер: 1.43 ГБ | Добавлен: 03 июл 2014
Раздают: 51    Качают: 25
Скачать торрент
Скачать торрент
Описание торрента

СообщениеДобавлено: 03 июл 2014 


Страна: Россия
Производство: Ленфильм
Жанр: Комедия
Год выпуска: 1997

Продолжительность: 01:26:59

Язык: Русский

Режиссер: Нино Ахвледиани

В ролях: Роман Дюдин, Михаил Вассербаум, Анатолий Равикович, Александр Демьяненко, Кира Крейлис-Петрова, Георгий Штиль, Игорь Головин, Анатолий Сливников, Сергей Бызгу, Дарья Филонова, Юрий Гальцев, Семен Стругачев, Александр Тютрюмов
Описание: Дмитрий Каменцев, тридцатилетний руководитель детского театра, находит кейс с миллионом долларов. Герой объявляет по телевидению в прямом эфире о своей находке и обещает вернуть деньги владельцу. Дмитрия начинают осаждать жулики и проходимцы. Некая криминальная группировка внедряет в труппу театра Милорда, четырнадцатилетнего подростка с уже «подмоченной» репутацией. Юный актер талантлив — это очевидно — и Каменцев дает ему главную роль в новом спектакле. Милорд соглашается и, как это свойственно талантливым людям, чрезмерно увлекается ролью Ричарда.



Тип релиза: SATRip

Контейнер: AVI

Видео: DivX, 2145 Кбит/с, 640x480
Аудио: АС3, 2 ch, 192 Кбит/с

Общее
Полное имя : D:залитьИСТОРИЯ ПРО РИЧАРДА МИЛОРДА И ПРЕКРАСНУЮ ЖАР-ПТИЦУ.avi
Формат : AVI
Формат/Информация : Audio Video Interleave
Размер файла : 1,43 Гбайт
Продолжительность : 1 ч. 26 м.
Общий поток : 2347 Кбит/сек
Программа кодирования : VirtualDubMod 1.5.10.2 (build 2540/release)
Библиотека кодирования : VirtualDubMod build 2540/release

Видео
Идентификатор : 0
Формат : MPEG-4 Visual
Параметр BVOP формата : 1
Параметр QPel формата : Нет
Параметр GMC формата : Без точки перехода
Параметр матрицы формата : Default (H.263)
Режим смешивания : Сжатый битовый поток
Идентификатор кодека : DX50
Идентификатор кодека/Подсказка : DivX 5
Продолжительность : 1 ч. 26 м.
Битрейт : 2145 Кбит/сек
Ширина : 640 пикселей
Высота : 480 пикселей
Соотношение сторон : 4:3
Частота кадров : 25,000 кадров/сек
Цветовое пространство : YUV
Субдискретизация насыщенности : 4:2:0
Битовая глубина : 8 бит
Тип развёртки : Прогрессивная
Метод сжатия : С потерями
Бит/(Пиксели*Кадры) : 0.279
Размер потока : 1,30 Гбайт (91%)
Библиотека кодирования : DivX 6.8.5 (UTC 2009-08-20)

Аудио
Идентификатор : 1
Формат : AC-3
Формат/Информация : Audio Coding 3
Расширение режима : CM (complete main)
Параметр Endianness формата : Big
Идентификатор кодека : 2000
Продолжительность : 1 ч. 26 м.
Вид битрейта : Постоянный
Битрейт : 192 Кбит/сек
Каналы : 2 канала
Расположение каналов : Front: L R
Частота : 48,0 КГц
Битовая глубина : 16 бит
Метод сжатия : С потерями
Размер потока : 119 Мбайт (8%)
Выравнивание : Разделение по промежуткам
Продолжительность промежутка : 40 мс. (1,00 видеокадр)
Время предзагрузки промежутка : 500 мс.


Автор рипа:



   Похожие торренты   Торрент   Размер 
В этой теме нет новых непрочитанных сообщений. Назад - к счастью, или Кто найдет Синюю птицу (2011) SATRip

46 | 2

1.35 ГБ

В этой теме нет новых непрочитанных сообщений. Назад к счастью, или Кто найдет Синюю птицу (2011) SATRip от КинозалSAT

3 | 3

700.03 МБ

В этой теме нет новых непрочитанных сообщений. Назад к счастью, или Кто найдет Синюю птицу (2011) SATRip от КинозалSAT

4 | 2

1.56 ГБ

В этой теме нет новых непрочитанных сообщений. В поисках Ричарда / Looking for Richard (1996) DVDRip от Scarabey | Р

20 | 7

746.02 МБ

В этой теме нет новых непрочитанных сообщений. В поисках Ричарда / Looking for Richard (1996) DVDRip от Scarabey | Р

163 | 14

1.45 ГБ

В этой теме нет новых непрочитанных сообщений. Назад к счастью, или Кто найдет Синюю птицу (2011) HDTVRip

10 | 3

1.45 ГБ

В этой теме нет новых непрочитанных сообщений. Назад к счастью, или Кто найдет Синюю птицу (2011) HDTVRip 720p

8 | 4

1.98 ГБ




Вы не можете начинать темы
Вы не можете отвечать на сообщения
Вы не можете редактировать свои сообщения
Вы не можете удалять свои сообщения
Вы не можете добавлять вложения

Перейти:  
Для Мосгорсуда, Роскомнадзора и рекламодателей: mosgorsud-torrent[собачка]yandex.ru
 Вход
ppkBB3cker v.2 © 2008-2014 @ PPK
[ Time : 0.249s | 14 Queries | GZIP : Off ]

Торрент трекер RUTOR.IN, Не можете зайти на rutor.org? Какой новый адрес рутор? Какое зеркало рутор? Не работает rutor.org и зеркала? Тогда наш торрент специально для вас. Rutor.in неофициальное зеркало rutor. В случае если у Вас заблокирован rutor или вдруг Вы не можете на него зайти, то Вы без труда сможете скачать бесплатно и без рекламы последние новинки кино, игр, сериалов и прочего у нас, на Rutor.in. Не нужно использовать прокси, чтобы зайти на рутор, достаточно воспользоваться нашим ресурсом. Все новые фильмы, игры, сериалы, книги и музыка за 2013 и 2014 годы через торрент бесплатно. Скачивайте фильмы в хорошем качестве, игры для пк, xbox, playstation без регистрации. У нас вы найдете новые Зарубежные сериалы и Русские сериалы 2013, 2014, 2015 годов. Оставайтесь с нами, качайте любимые фильмы, игры, сериалы, книги и музыку.