img image001 image001 image001 image001 image001 image001 image001 image001 image001 image001 image001 image001 image001 image001 image001

Planets Sun Sun Sun
Статистика раздачи
Автор: Nickolas3434 | Размер: 2.24 ГБ | Добавлен: 06 июл 2014
Раздают: 552    Качают: 27
Скачать торрент
Скачать торрент
Описание торрента

СообщениеДобавлено: 06 июл 2014 

Информация о фильме

Оригинальное название: Всё и сразу
Год выпуска: 2014
Жанр: Комедия, криминал
Выпущено: Россия, Инвада фильм
Режиссер: Роман Каримов
В ролях: Никита Ост, Антон Шурцов, Александр Паль, Юлия Хлынина, Артем Костюнёв, Андрей Муравьёв, Александр Шаляпин, Андрей Галактионов, Игорь Тарасевич, Ольга Возовая

О фильме: Тима и Дэн — друзья-неудачники из провинциального городка. Учеба позади, работать не тянет, девушек нет. На пути к мечте (выбиться в люди) и в надежде получить всё и сразу (без особого напряга) парни берутся выполнить задание местного бандюка и отправляются на дело, прихватив с собой автослесаря Жору, такого же полного лузера. На кону внушительная сумма, главное — не облажаться и чётко инсценировать ограбление своего же, подставного наркокурьера. Но вот засада: роль курьера случайно достаётся честному дембелю Ване, который оказывается не в курсе схем и обещаний. И теперь в водовороте погонь, потасовок и перестрелок всем четверым нужно по-настоящему напрячься, чтобы грамотно разрулить ситуацию. И получить ВСЁ и СРАЗУ.

Файл

Качество: WEB-DLRip (AVC)
Видео: MPEG-4 AVC, 3000 Кбит/с, 1024x576, 24 кадр/с
Аудио: AC3, 6 ch, 384 Кбит/с
Размер: 2.24 ГБ
Продолжительность: 01:34:53
Язык: Русский
Сохранены оригинальные чаптеры как на Blu-Ray.

x264 [info]: frame I:1162 Avg QP:12.61 size:119754
x264 [info]: frame P:36585 Avg QP:16.52 size: 34767
x264 [info]: frame B:98888 Avg QP:20.94 size: 7314
----------------------------------------------------
Общее
Уникальный идентификатор : 196242067878596373537796627550852617048 (0x93A2D8F4F24A2F39BE1CA6D22EC01358)
Полное имя : D:ЗагрузкиRIPVsjo.I.Srazu.2014.WEB-DLRip.(AVC).ExKinoRay.mkv
Формат : Matroska
Версия формата : Version 2
Размер файла : 2,24 Гбайт
Продолжительность : 1 ч. 34 м.
Общий поток : 3385 Кбит/сек
Название фильма : Всё и сразу.2014.Rip by: ollan
Дата кодирования : UTC 2014-07-05 14:19:59
Программа кодирования : mkvmerge v5.6.0 ('Kenya Kane') built on May 27 2012 16:44:04
Библиотека кодирования : libebml v1.2.3 + libmatroska v1.3.0

Видео
Идентификатор : 1
Формат : AVC
Формат/Информация : Advanced Video Codec
Профиль формата : High@L4.1
Параметр CABAC формата : Да
Параметр ReFrames формата : 9 кадров
Идентификатор кодека : V_MPEG4/ISO/AVC
Продолжительность : 1 ч. 34 м.
Битрейт : 3000 Кбит/сек
Ширина : 1024 пикселя
Высота : 576 пикселей
Соотношение сторон : 16:9
Режим частоты кадров : Постоянный
Частота кадров : 24,000 кадра/сек
Цветовое пространство : YUV
Субдискретизация насыщенности : 4:2:0
Битовая глубина : 8 бит
Тип развёртки : Прогрессивная
Бит/(Пиксели*Кадры) : 0.212
Размер потока : 1,94 Гбайт (87%)
Библиотека кодирования : x264 core 125 r2200 999b753
Настройки программы : cabac=1 / ref=9 / deblock=1:-3:-3 / analyse=0x3:0x133 / me=umh / subme=11 / psy=1 / psy_rd=1.00:0.10 / mixed_ref=1 / me_range=32 / chroma_me=1 / trellis=2 / 8x8dct=1 / cqm=0 / deadzone=21,11 / fast_pskip=0 / chroma_qp_offset=-3 / threads=12 / lookahead_threads=2 / sliced_threads=0 / nr=0 / decimate=0 / interlaced=0 / bluray_compat=0 / constrained_intra=0 / bframes=9 / b_pyramid=2 / b_adapt=2 / b_bias=0 / direct=3 / weightb=1 / open_gop=0 / weightp=2 / keyint=240 / keyint_min=23 / scenecut=40 / intra_refresh=0 / rc_lookahead=40 / rc=2pass / mbtree=1 / bitrate=3000 / ratetol=1.0 / qcomp=0.60 / qpmin=0 / qpmax=69 / qpstep=4 / cplxblur=20.0 / qblur=0.5 / ip_ratio=1.40 / aq=1:1.00
Язык : Russian
Default : Да
Forced : Нет

Аудио
Идентификатор : 2
Формат : AC-3
Формат/Информация : Audio Coding 3
Расширение режима : CM (complete main)
Параметр Endianness формата : Big
Идентификатор кодека : A_AC3
Продолжительность : 1 ч. 34 м.
Вид битрейта : Постоянный
Битрейт : 384 Кбит/сек
Каналы : 6 каналов
Расположение каналов : Front: L C R, Side: L R, LFE
Частота : 48,0 КГц
Битовая глубина : 16 бит
Метод сжатия : С потерями
Размер потока : 261 Мбайт (11%)
Заголовок : iTunes Russian
Язык : Russian
Default : Да
Forced : Нет

Меню
00:00:00.000 : :Chapter 01
00:07:17.000 : :Chapter 02
00:12:19.000 : :Chapter 03
00:17:32.000 : :Chapter 04
00:22:33.000 : :Chapter 05
00:27:35.000 : :Chapter 06
00:32:43.000 : :Chapter 07
00:37:46.000 : :Chapter 08
00:42:48.000 : :Chapter 09
00:48:02.000 : :Chapter 10
00:53:03.000 : :Chapter 11
00:58:05.000 : :Chapter 12
01:03:07.000 : :Chapter 13
01:08:09.000 : :Chapter 14
01:13:12.000 : :Chapter 15
01:18:12.000 : :Chapter 16
01:23:19.000 : :Chapter 17








Релиз от: Rip by:



   Похожие торренты   Торрент   Размер 
В этой теме нет новых непрочитанных сообщений. Кухня в Париже (2014) WEB-DLRip-AVC от ExKinoRay | iTunes Russian

354 | 3

2.19 ГБ

В этой теме нет новых непрочитанных сообщений. Кухня в Париже (2014) WEB-DLRip-AVC от ExKinoRay | iTunes Russian

591 | 74

2.19 ГБ

В этой теме нет новых непрочитанных сообщений. Всё и сразу (2014) WEB-DLRip от Scarabey | iTunes

478 | 18

745.08 МБ

В этой теме нет новых непрочитанных сообщений. Всё и сразу (2014) WEB-DLRip от Scarabey | iTunes

5511 | 174

1.45 ГБ

В этой теме нет новых непрочитанных сообщений. Саботаж / Sabotage (2014) BDRemux 1080р от ExKinoRay | iTunes Russian

113 | 54

27.02 ГБ

В этой теме нет новых непрочитанных сообщений. Саботаж / Sabotage (2014) BDRip 1080p от ExKinoRay | iTunes Russian

451 | 179

11.12 ГБ

В этой теме нет новых непрочитанных сообщений. Кухня в Париже (2014) WEB-DLRip-AVC | iTunes Russian

372 | 56

700.59 МБ




Вы не можете начинать темы
Вы не можете отвечать на сообщения
Вы не можете редактировать свои сообщения
Вы не можете удалять свои сообщения
Вы не можете добавлять вложения

Перейти:  
Для Мосгорсуда, Роскомнадзора и рекламодателей: mosgorsud-torrent[собачка]yandex.ru
 Вход
ppkBB3cker v.2 © 2008-2014 @ PPK
[ Time : 0.041s | 15 Queries | GZIP : Off ]

Торрент трекер RUTOR.IN, Не можете зайти на rutor.org? Какой новый адрес рутор? Какое зеркало рутор? Не работает rutor.org и зеркала? Тогда наш торрент специально для вас. Rutor.in неофициальное зеркало rutor. В случае если у Вас заблокирован rutor или вдруг Вы не можете на него зайти, то Вы без труда сможете скачать бесплатно и без рекламы последние новинки кино, игр, сериалов и прочего у нас, на Rutor.in. Не нужно использовать прокси, чтобы зайти на рутор, достаточно воспользоваться нашим ресурсом. Все новые фильмы, игры, сериалы, книги и музыка за 2013 и 2014 годы через торрент бесплатно. Скачивайте фильмы в хорошем качестве, игры для пк, xbox, playstation без регистрации. У нас вы найдете новые Зарубежные сериалы и Русские сериалы 2013, 2014, 2015 годов. Оставайтесь с нами, качайте любимые фильмы, игры, сериалы, книги и музыку.