img image001 image001 image001 image001 image001 image001 image001 image001 image001 image001 image001 image001 image001 image001 image001

Planets Sun Sun Sun
Статистика раздачи
Автор: Nickolas3434 | Размер: 765.08 МБ | Добавлен: 10 июл 2014
Раздают: 277    Качают: 19
Скачать торрент
Скачать торрент
Описание торрента

СообщениеДобавлено: 10 июл 2014 

Информация о фильме
Название: Выкрутасы
Год выхода: 2011
Жанр: Комедия, приключения, мелодрама, спорт
Режиссёр: Леван Габриадзе
В ролях: Милла Йовович, Константин Хабенский, Иван Ургант, Александр Кержаков, Сергей Гармаш, Владимир Меньшов, Ольга Тумайкина, Сергей Селин, Галина Логинова, Татьяна Лютаева, Александра Назарова, Таисия Вилкова, Савва Гусев, Михаил Никольский, Дмитрий Гогу, Иван Дёмин, Глеб Степанов, Александр Рахимбеков, Олег Масленников, Джумбер Ардишвили, Михаил Гостищев, Юрий Гостищев, Иван Слесаренко, Александр Фарбер, Константин Степанов, Виталий Филипповых, Сергей Шеховцов, Александр Робак, Роман Мадянов

О фильме:
Что делать простому школьному учителю из сонного приморского городка с небанальным названием "Пальчики", если в Москве его ждёт - не дождётся красавица-невеста Надя, свадебный стол уже ломится от угощений, а гости готовы в любой момент грянуть "Горько"? Правильно. Бросать все дела, и пулей лететь в Златоглавую. Но Слава Колотилов накрепко застрял: в "Пальчиках" - идёт чемпионат страны по дворовому футболу, и крайним - то есть тренером местной команды - назначили именно его...



Страна: Россия
Студия: Базелевс Продакшн
Продолжительность: 01:40:48
Перевод: Не требуется

Файл
Кодек: XviD
Качество: BDRip [Исходник: Blu-Ray Remux (1080p) от RG Neofilm]
Видео: XviD, 640x272 (2.35:1), 924 Кбит/с, 23,976 кадр/с
Звук: Русский, MP3, 48000 Гц, 128 Кбит/с, 2 канала (Стерео)
Субтитры: Нет



General
Complete name : Vikrutasi.2011.BDRip.avi
Format : AVI
Format/Info : Audio Video Interleave
File size : 765 MiB
Duration : 1h 40mn
Overall bit rate : 1 061 Kbps
Writing application : VirtualDubMod 1.5.10.3 | www.virtualdub-fr.org || (build 2550/release)
Writing library : VirtualDubMod build 2550/release

Video
ID : 0
Format : MPEG-4 Visual
Format profile : Advanced Simple@L5
Format settings, BVOP : 2
Format settings, QPel : No
Format settings, GMC : No warppoints
Format settings, Matrix : Custom
Codec ID : XVID
Codec ID/Hint : XviD
Duration : 1h 40mn
Bit rate : 924 Kbps
Width : 640 pixels
Height : 272 pixels
Display aspect ratio : 2.35:1
Frame rate : 23.976 fps
Color space : YUV
Chroma subsampling : 4:2:0
Bit depth : 8 bits
Scan type : Progressive
Compression mode : Lossy
Bits/(Pixel*Frame) : 0.221
Stream size : 666 MiB (87%)
Writing library : XviD 73

Audio
ID : 1
Format : MPEG Audio
Format version : Version 1
Format profile : Layer 3
Codec ID : 55
Codec ID/Hint : MP3
Duration : 1h 40mn
Bit rate mode : Constant
Bit rate : 128 Kbps
Channel(s) : 2 channels
Sampling rate : 48.0 KHz
Compression mode : Lossy
Stream size : 92.3 MiB (12%)
Alignment : Aligned on interleaves
Interleave, duration : 42 ms (1.00 video frame)
Interleave, preload duration : 504 ms
Writing library : LAME3.99r
Encoding settings : -m s -V 4 -q 0 -lowpass 17 -b 128

Автор рипа - ivandubskoj



   Похожие торренты   Торрент   Размер 
В этой теме нет новых непрочитанных сообщений. Выкрутасы (2011) BDRip от HQCLUB

549 | 12

1.45 ГБ

В этой теме нет новых непрочитанных сообщений. Выкрутасы (2011) BDRip 720p

1 | 6

4.37 ГБ

В этой теме нет новых непрочитанных сообщений. Выкрутасы (2011) BDRip-AVC - Vaippp

13 | 3

2.18 ГБ

В этой теме нет новых непрочитанных сообщений. Выкрутасы (2011) BDRip 1080 от HDReactor

7 | 4

9.46 ГБ

В этой теме нет новых непрочитанных сообщений. Выкрутасы (2011) BDRip 1080p Rip by Neofilm

33 | 6

4.24 ГБ

В этой теме нет новых непрочитанных сообщений. Выкрутасы (2011) BDRip 720p - Vaippp

1 | 2

7.39 ГБ

В этой теме нет новых непрочитанных сообщений. Выкрутасы (2011) BDRip 720p от FireBit

23 | 4

3.62 ГБ




Вы не можете начинать темы
Вы не можете отвечать на сообщения
Вы не можете редактировать свои сообщения
Вы не можете удалять свои сообщения
Вы не можете добавлять вложения

Перейти:  
Для Мосгорсуда, Роскомнадзора и рекламодателей: mosgorsud-torrent[собачка]yandex.ru
 Вход
ppkBB3cker v.2 © 2008-2014 @ PPK
[ Time : 0.039s | 16 Queries | GZIP : Off ]

Торрент трекер RUTOR.IN, Не можете зайти на rutor.org? Какой новый адрес рутор? Какое зеркало рутор? Не работает rutor.org и зеркала? Тогда наш торрент специально для вас. Rutor.in неофициальное зеркало rutor. В случае если у Вас заблокирован rutor или вдруг Вы не можете на него зайти, то Вы без труда сможете скачать бесплатно и без рекламы последние новинки кино, игр, сериалов и прочего у нас, на Rutor.in. Не нужно использовать прокси, чтобы зайти на рутор, достаточно воспользоваться нашим ресурсом. Все новые фильмы, игры, сериалы, книги и музыка за 2013 и 2014 годы через торрент бесплатно. Скачивайте фильмы в хорошем качестве, игры для пк, xbox, playstation без регистрации. У нас вы найдете новые Зарубежные сериалы и Русские сериалы 2013, 2014, 2015 годов. Оставайтесь с нами, качайте любимые фильмы, игры, сериалы, книги и музыку.
cron