img image001 image001 image001 image001 image001 image001 image001 image001 image001 image001 image001 image001 image001 image001 image001

Planets Sun Sun Sun
Статистика раздачи
Автор: Nickolas3434 | Размер: 1.37 ГБ | Добавлен: 16 июл 2014
Раздают: 263    Качают: 5
Скачать торрент
Скачать торрент
Описание торрента

СообщениеДобавлено: 16 июл 2014 

Информация о фильме
Название: Подарок с характером
Год выхода: 2014
Жанр: Комедия, семейный, приключения
Режиссёр: Карен Оганесян
В ролях: Михаил Галустян, Артем Фадеев, Фёдор Бондарчук, Екатерина Климова, Николай Валуев, Ирина Безрукова, Катерина Шпица, Алексей Макаров, Константин Юшкевич, Инга Стрелкова-Оболдина

О фильме:
Быть пандой весело! Но не Мише, который вынужден работать в костюме панды на детских праздниках. Ему тридцать лет, он живет в крохотной однушке на окраине Москвы, и у него нет серьезной работы. Все было так, пока его не позвали на день рождения к сыну олигарха. Артему девять лет, и у него есть тайный план, помочь осуществить который может только Миша. Мальчик и панда отправляются в путешествие через всю страну, то и дело вляпываясь в невероятные ситуации.



Страна: Россия
Студия: Fresh Films
Продолжительность: 01:24:35
Перевод: Не требуется

Файл
Кодек: XviD
Качество: WEB-DLRip
Видео: XviD, 720x384 (1.875), 1921 Кбит/с, 25 кадр/с
Звук: Русский, Dolby AC3, 48000 Гц, 384 Кбит/с, 6 каналов (5.1)
Субтитры: Нет



General
Complete name : Podarok.s.Harakterom.2014.WEB-DLRip.avi
Format : AVI
Format/Info : Audio Video Interleave
File size : 1.37 GiB
Duration : 1h 24mn
Overall bit rate : 2 315 Kbps
Movie name : Podarok.s.Harakterom.2014.WEB-DLRip.ELEKTRI4KA
Director : ELEKTRI4KA
Writing application : VirtualDubMod 1.5.10.2 (build 2540/release)
Original source form/Name : Movie
Copyright : uniongang.tv

Video
ID : 0
Format : MPEG-4 Visual
Format profile : Advanced Simple@L5
Format settings, BVOP : 2
Format settings, QPel : No
Format settings, GMC : No warppoints
Format settings, Matrix : Custom
Codec ID : XVID
Codec ID/Hint : XviD
Duration : 1h 24mn
Bit rate : 1 921 Kbps
Width : 720 pixels
Height : 384 pixels
Display aspect ratio : 1.875
Frame rate : 25.000 fps
Color space : YUV
Chroma subsampling : 4:2:0
Bit depth : 8 bits
Scan type : Progressive
Compression mode : Lossy
Bits/(Pixel*Frame) : 0.278
Stream size : 1.14 GiB (83%)
Writing library : XviD 1.2.1 (UTC 2008-12-04)

Audio
ID : 1
Format : AC-3
Format/Info : Audio Coding 3
Mode extension : CM (complete main)
Codec ID : 2000
Duration : 1h 24mn
Bit rate mode : Constant
Bit rate : 384 Kbps
Channel(s) : 6 channels
Channel positions : Front: L C R, Side: L R, LFE
Sampling rate : 48.0 KHz
Bit depth : 16 bits
Compression mode : Lossy
Stream size : 232 MiB (17%)
Alignment : Split accross interleaves
Interleave, duration : 40 ms (1.00 video frame)
Interleave, preload duration : 500 ms

Релиз от:



   Похожие торренты   Торрент   Размер 
В этой теме нет новых непрочитанных сообщений. Подарок с характером (2014) BDRip-AVC

347 | 20

745.56 МБ

В этой теме нет новых непрочитанных сообщений. Подарок с характером (2014) WEBRip

5834 | 67

1.37 ГБ

В этой теме нет новых непрочитанных сообщений. Подарок с характером (2014) BDRip-AVC

232 | 76

1.46 ГБ

В этой теме нет новых непрочитанных сообщений. Подарок с характером (2014) WEBRip

311 | 10

699.59 МБ

В этой теме нет новых непрочитанных сообщений. Подарок с характером (2014) BDRip-AVC от HQCLUB

132 | 7

2.1 ГБ

В этой теме нет новых непрочитанных сообщений. Подарок с характером (2014) BDRip 720p

1022 | 53

2.53 ГБ

В этой теме нет новых непрочитанных сообщений. Подарок с характером (2014) WEBRip 720p

5663 | 292

2.6 ГБ




Вы не можете начинать темы
Вы не можете отвечать на сообщения
Вы не можете редактировать свои сообщения
Вы не можете удалять свои сообщения
Вы не можете добавлять вложения

Перейти:  
Для Мосгорсуда, Роскомнадзора и рекламодателей: mosgorsud-torrent[собачка]yandex.ru
 Вход
ppkBB3cker v.2 © 2008-2014 @ PPK
[ Time : 3.572s | 17 Queries | GZIP : Off ]
CGP output time : 0.020s | 5 Queries | GZIP : Off

Торрент трекер RUTOR.IN, Не можете зайти на rutor.org? Какой новый адрес рутор? Какое зеркало рутор? Не работает rutor.org и зеркала? Тогда наш торрент специально для вас. Rutor.in неофициальное зеркало rutor. В случае если у Вас заблокирован rutor или вдруг Вы не можете на него зайти, то Вы без труда сможете скачать бесплатно и без рекламы последние новинки кино, игр, сериалов и прочего у нас, на Rutor.in. Не нужно использовать прокси, чтобы зайти на рутор, достаточно воспользоваться нашим ресурсом. Все новые фильмы, игры, сериалы, книги и музыка за 2013 и 2014 годы через торрент бесплатно. Скачивайте фильмы в хорошем качестве, игры для пк, xbox, playstation без регистрации. У нас вы найдете новые Зарубежные сериалы и Русские сериалы 2013, 2014, 2015 годов. Оставайтесь с нами, качайте любимые фильмы, игры, сериалы, книги и музыку.