img image001 image001 image001 image001 image001 image001 image001 image001 image001 image001 image001 image001 image001 image001 image001

Planets Sun Sun Sun
Статистика раздачи
Автор: Nickolas3434 | Размер: 744.75 МБ | Добавлен: 17 июл 2014
Раздают: 1    Качают: 3
Скачать торрент
Скачать торрент
Описание торрента

СообщениеДобавлено: 17 июл 2014 

Страна: Россия
Производство: Пигмалион Продакшн

Жанр: драма
Год выпуска: 2003
Продолжительность: 01:22:56

Перевод: не требуется
Оригинальная аудиодорожка: русский
Cубтитры: нет

Режиссер: Леонид Рыбаков

В ролях:
Юлия Агафонова, Марина Орел, Евгений Сергеев, Максим Максот, Ксения Белая, Рамиль Сабитов, Андрей Фомин...

Описание:
Жила-была необыкновенная девушка по имени Катрин. Она была в состоянии полной растерянности, потому что не знала, как ей дальше жить. И тогда ей пришло в голову дать объявление в газету, чтобы встретить кого-нибудь и хотя бы поговорить. Объявление это звучало так: «Я умираю от тоски. Помогите! Ровно в 12 под часами. Катрин». На него откликнулись парикмахерша Рита, «мажор» Паша и боксер Саша, они же – ангел любви, ангел молчания и ангел надежды… Так Катрин нашла единомышленников, готовых вместе с ней пуститься на поиски приключений. И главным из их похождений становится похищение книг. Герои этого современного романтического музыкального фильма – отчаянные молодые люди, мечтатели и фантазеры, не желающие мириться с серой обыденностью и прислушиваться к голосу разума. Они готовы идти своим путем и творить свою жизнь, не задумываясь о последствиях.





Исходник: DVD9 R5
Тип релиза: DVDRip
Контейнер: AVI

Видео: 688x368 (1,85:1), 25 fps, XviD ~ 1118 kbps avg, 0.177 bit/pixel
Аудио: 48 kHz, MP3 2.0, 128 kbps

Раздача от:
Общее
Полное имя : Pohititeli.knig.2003.DVDRip-745_[New-team]_by_AVP_Studio.avi
Формат : AVI
Формат/Информация : Audio Video Interleave
Размер файла : 745 Мбайт
Продолжительность : 1 ч. 22 м.
Общий поток : 1256 Кбит/сек
Программа кодирования : VirtualDubModRus 1.5.10.2 (build 2542/release)
Библиотека кодирования : VirtualDubMod build 2542/release

Видео
Идентификатор : 0
Формат : MPEG-4 Visual
Профиль формата : Advanced Simple@L5
Параметр BVOP формата : 1
Параметр QPel формата : Нет
Параметр GMC формата : Без точки перехода
Параметр матрицы формата : Выборочная
Идентификатор кодека : XVID
Идентификатор кодека/Подсказка : XviD
Продолжительность : 1 ч. 22 м.
Битрейт : 1118 Кбит/сек
Ширина : 688 пикселей
Высота : 368 пикселей
Соотношение сторон : 1,85:1
Частота кадров : 25,000 кадров/сек
Цветовое пространство : YUV
Субдискретизация насыщенности : 4:2:0
Битовая глубина : 8 бит
Тип развёртки : Прогрессивная
Метод сжатия : С потерями
Бит/(Пиксели*Кадры) : 0.177
Размер потока : 663 Мбайт (89%)
Библиотека кодирования : XviD 73

Аудио
Идентификатор : 1
Формат : MPEG Audio
Версия формата : Version 1
Профиль формата : Layer 3
Идентификатор кодека : 55
Идентификатор кодека/Подсказка : MP3
Продолжительность : 1 ч. 22 м.
Вид битрейта : Постоянный
Битрейт : 128 Кбит/сек
Каналы : 2 канала
Частота : 48,0 КГц
Метод сжатия : С потерями
Размер потока : 75,9 Мбайт (10%)
Выравнивание : Соединение по промежуткам
Продолжительность промежутка : 40 мс. (1,00 видеокадр)
Время предзагрузки промежутка : 504 мс.
Библиотека кодирования : LAME3.99r
Настройки программы : -m s -V 4 -q 2 -lowpass 17 -b 128





   Похожие торренты   Торрент   Размер 
В этой теме нет новых непрочитанных сообщений. Похитители книг (2003) DVDRip-AVC от New-Team

20 | 4

1.45 ГБ

В этой теме нет новых непрочитанных сообщений. Похитители книг (2003) DVDRip от New-Team

6 | 5

1.46 ГБ

В этой теме нет новых непрочитанных сообщений. Похитители книг (2003) DVDRip

0 | 2

675.31 МБ

В этой теме нет новых непрочитанных сообщений. Похитители / Les Kidnappeurs (1998) DVDRip от New-Team | P

33 | 15

745.26 МБ

В этой теме нет новых непрочитанных сообщений. Похитители / Les Kidnappeurs (1998) DVDRip от New-Team | P

62 | 27

1.46 ГБ

В этой теме нет новых непрочитанных сообщений. Похитители / Les Kidnappeurs (1998) DVDRip-AVC от New-Team | P

39 | 11

1.46 ГБ

В этой теме нет новых непрочитанных сообщений. Похитители тел / Body Snatchers (1993) DVDRip | D + A

32 | 9

745.09 МБ




Вы не можете начинать темы
Вы не можете отвечать на сообщения
Вы не можете редактировать свои сообщения
Вы не можете удалять свои сообщения
Вы не можете добавлять вложения

Перейти:  
Для Мосгорсуда, Роскомнадзора и рекламодателей: mosgorsud-torrent[собачка]yandex.ru
 Вход
ppkBB3cker v.2 © 2008-2014 @ PPK
[ Time : 0.032s | 16 Queries | GZIP : On ]

Торрент трекер RUTOR.IN, Не можете зайти на rutor.org? Какой новый адрес рутор? Какое зеркало рутор? Не работает rutor.org и зеркала? Тогда наш торрент специально для вас. Rutor.in неофициальное зеркало rutor. В случае если у Вас заблокирован rutor или вдруг Вы не можете на него зайти, то Вы без труда сможете скачать бесплатно и без рекламы последние новинки кино, игр, сериалов и прочего у нас, на Rutor.in. Не нужно использовать прокси, чтобы зайти на рутор, достаточно воспользоваться нашим ресурсом. Все новые фильмы, игры, сериалы, книги и музыка за 2013 и 2014 годы через торрент бесплатно. Скачивайте фильмы в хорошем качестве, игры для пк, xbox, playstation без регистрации. У нас вы найдете новые Зарубежные сериалы и Русские сериалы 2013, 2014, 2015 годов. Оставайтесь с нами, качайте любимые фильмы, игры, сериалы, книги и музыку.