img image001 image001 image001 image001 image001 image001 image001 image001 image001 image001 image001 image001 image001 image001 image001

Planets Sun Sun Sun
Статистика раздачи
Автор: Nickolas3434 | Размер: 1.46 ГБ | Добавлен: 17 июл 2014
Раздают: 42    Качают: 7
Скачать торрент
Скачать торрент
Описание торрента

СообщениеДобавлено: 17 июл 2014 


Страна: СССР
Производство: Киностудия им. А. Довженко
Жанр: Драма, военный
Год выпуска: 1972

Продолжительность: 01:35:29

Язык: Русский

Режиссер: Виктор Ивченко

В ролях: Нинель Мышкова, Владимир Волков, Степан Олексенко, Валерий Панарин, Лариса Хоролец, Елена Аминова, Борислав Брондуков, Светлана Кондратова

Описание: Во время Великой Отечественной войны, ведя подпольную работу в оккупированном Киеве, медсестра Софья Грушко вынуждена пойти на службу к фашистам, стрелять в пленного советского командира Семена Лихолая, которого потом сама же спасла и выходила после ранения. Спустя много лет они встретились в доме Софьи, и Семен, не зная всей правды, рассказал ее взрослым дочерям, что их мать — предатель. А Софья не может опровергнуть страшное обвинение, т. к. продолжает выполнять задание советской разведки. Она ждет связного от фашиста «завербовавшего» ее в гестапо…


Исходник: DVD5 R5
Тип релиза: DVDRip
Контейнер: AVI
Видео: XviD, 1981 Кбит/с, 704х424
Аудио: АС3, 2 ch, 192 Кбит/с

Общее
Полное имя : E:1АААСофья Грушко.avi
Формат : AVI
Формат/Информация : Audio Video Interleave
Размер файла : 1,46 Гбайт
Продолжительность : 1 ч. 35 м.
Общий поток : 2182 Кбит/сек
Программа кодирования : VirtualDubMod 1.5.10.3 | www.virtualdub-fr.org || (build 2550/release)
Библиотека кодирования : VirtualDubMod build 2550/release

Видео
Идентификатор : 0
Формат : MPEG-4 Visual
Профиль формата : Advanced Simple@L5
Параметр BVOP формата : 2
Параметр QPel формата : Нет
Параметр GMC формата : Без точки перехода
Параметр матрицы формата : Default (MPEG)
Идентификатор кодека : XVID
Идентификатор кодека/Подсказка : XviD
Продолжительность : 1 ч. 35 м.
Битрейт : 1981 Кбит/сек
Ширина : 704 пикселя
Высота : 424 пикселя
Соотношение сторон : 1,660
Частота кадров : 23,976 кадра/сек
Цветовое пространство : YUV
Субдискретизация насыщенности : 4:2:0
Битовая глубина : 8 бит
Тип развёртки : Прогрессивная
Метод сжатия : С потерями
Бит/(Пиксели*Кадры) : 0.277
Размер потока : 1,32 Гбайт (91%)
Библиотека кодирования : XviD 1.2.1 (UTC 2008-12-04)

Аудио
Идентификатор : 1
Формат : AC-3
Формат/Информация : Audio Coding 3
Расширение режима : CM (complete main)
Параметр Endianness формата : Big
Идентификатор кодека : 2000
Продолжительность : 1 ч. 35 м.
Вид битрейта : Постоянный
Битрейт : 192 Кбит/сек
Каналы : 2 канала
Расположение каналов : Front: L R
Частота : 48,0 КГц
Битовая глубина : 16 бит
Метод сжатия : С потерями
Размер потока : 131 Мбайт (9%)
Выравнивание : Разделение по промежуткам
Продолжительность промежутка : 42 мс. (1,00 видеокадр)
Время предзагрузки промежутка : 500 мс.




Релиз группа:
Автор рипа:



   Похожие торренты   Торрент   Размер 
В этой теме нет новых непрочитанных сообщений. Софья Ковалевская (1956) SATRip от New-Team

0 | 5

1.46 ГБ

В этой теме нет новых непрочитанных сообщений. Софья Ковалевская (1956) SATRip-AVC от New-Team

2 | 0

1.46 ГБ

В этой теме нет новых непрочитанных сообщений. Софья Ковалевская (1956) SATRip от New-Team

11 | 0

745.19 МБ

В этой теме нет новых непрочитанных сообщений. Софья Баскина - Дрессируйте собак самостоятельно! Видеокурс (2015) WEBRip

3 | 0

1.98 ГБ

В этой теме нет новых непрочитанных сообщений. Софья Мироедова - Теория Иллюстрации. Персонаж и Среда. Видеокурс (2016) PCRec

7 | 0

1.36 ГБ

В этой теме нет новых непрочитанных сообщений. Теннис. WTA Slam US Open 2017. 2-й круг. Софья Кенин — Мария Шарапова [01.09] (2017) IPTV 1080p | 50 fps

0 | 0

4.01 ГБ

В этой теме нет новых непрочитанных сообщений. Теннис. WTA Slam US Open 2017. 3-й круг. Софья Кенин - Мария Шарапова [Eurosport HD] [01.09] (2017) HDTVRip 720p | 50 fps

5 | 8

3.23 ГБ




Вы не можете начинать темы
Вы не можете отвечать на сообщения
Вы не можете редактировать свои сообщения
Вы не можете удалять свои сообщения
Вы не можете добавлять вложения

Перейти:  
Для Мосгорсуда, Роскомнадзора и рекламодателей: mosgorsud-torrent[собачка]yandex.ru
 Вход
ppkBB3cker v.2 © 2008-2014 @ PPK
[ Time : 2.492s | 18 Queries | GZIP : Off ]

cron