img image001 image001 image001 image001 image001 image001 image001 image001 image001 image001 image001 image001 image001 image001 image001

Planets Sun Sun Sun
Статистика раздачи
Автор: Nickolas3434 | Размер: 744.53 МБ | Добавлен: 18 июл 2014
Раздают: 158    Качают: 18
Скачать торрент
Скачать торрент
Описание торрента

СообщениеДобавлено: 18 июл 2014 

«Кино про любовь...»



Страна: Россия
Производство: Staralis Film Company
Жанр: драма
Год выпуска: 2007
Продолжительность: 01:44:37

Перевод: Не требуется
Оригинальная аудиодорожка: русский
Cубтитры: нет

Режиссер: Ярослав Чеважевский

В ролях:
Павел Деревянко, Дмитрий Дюжев, Марина Голуб, Андрей Ильин, Юрий Колокольников, Ирина Купченко, Александр Половцев, Дина Корзун, Настя Добрынина и др.

Описание:
Лене 38 лет. Жизнь, казалось бы, налажена — Москва, карьера, «престижный» бойфренд… Но Лена сознает, что это — путь в никуда, что при внешнем благополучии она потеряла что-то очень важное и что пришла пора, наконец, пересмотреть свою жизнь. Либо сейчас, либо уже никогда…
Кука живет в Петербурге совершенно одна. Она очень смышленая и очень взрослая. Кука все делает сама — и в магазин ходит, и еду готовит, и за домом следит. Кука смелая. Куке — 6 лет. Однажды Лена и Кука встречаются…






Исходник: Blu-ray 1080p
Тип релиза: BDRip
Контейнер: AVI

Видео: 656x368 (16:9), 23,976 fps, XviD ~ 858 kbps avg, 0.148 bit/pixel
Аудио: 48 kHz, MP3 2.0, 128 kbps

Раздача от:
Общее
Полное имя : Kuka.2007.BDRip-745_[New-team]_by_AVP_Studio.avi
Формат : AVI
Формат/Информация : Audio Video Interleave
Размер файла : 745 Мбайт
Продолжительность : 1 ч. 44 м.
Общий поток : 995 Кбит/сек
Программа кодирования : VirtualDubModRus 1.5.10.2 (build 2542/release)
Библиотека кодирования : VirtualDubMod build 2542/release

Видео
Идентификатор : 0
Формат : MPEG-4 Visual
Профиль формата : Advanced Simple@L5
Параметр BVOP формата : 1
Параметр QPel формата : Нет
Параметр GMC формата : Без точки перехода
Параметр матрицы формата : Выборочная
Идентификатор кодека : XVID
Идентификатор кодека/Подсказка : XviD
Продолжительность : 1 ч. 44 м.
Битрейт : 858 Кбит/сек
Ширина : 656 пикселей
Высота : 368 пикселей
Соотношение сторон : 16:9
Частота кадров : 23,976 кадра/сек
Цветовое пространство : YUV
Субдискретизация насыщенности : 4:2:0
Битовая глубина : 8 бит
Тип развёртки : Прогрессивная
Метод сжатия : С потерями
Бит/(Пиксели*Кадры) : 0.148
Размер потока : 642 Мбайт (86%)
Библиотека кодирования : XviD 73

Аудио
Идентификатор : 1
Формат : MPEG Audio
Версия формата : Version 1
Профиль формата : Layer 3
Идентификатор кодека : 55
Идентификатор кодека/Подсказка : MP3
Продолжительность : 1 ч. 44 м.
Вид битрейта : Постоянный
Битрейт : 128 Кбит/сек
Каналы : 2 канала
Частота : 48,0 КГц
Метод сжатия : С потерями
Размер потока : 95,8 Мбайт (13%)
Выравнивание : Соединение по промежуткам
Продолжительность промежутка : 42 мс. (1,00 видеокадр)
Время предзагрузки промежутка : 504 мс.
Библиотека кодирования : LAME3.99r
Настройки программы : -m s -V 4 -q 2 -lowpass 17 -b 128



Над музыкальным оформлением картины работало сразу несколько известных музыкантов, среди которых Максим Фадеев, Анастасия Максимова, Сергей Баневич, Олег Воляндо, Юрий Игнатов, Сергей Парамонов. На одной из вечеринок «Кинотавра» певец, музыкант и сопродюсер «Куки» Андрей Ковалёв исполнил саундтрек «Ангел» из кинофильма. Настя Добрынина танцевала вокруг в костюме маленькой феи.
Из интервью А. Ковалёва газете «Вечерняя Москва»:
ЦитатаКто-то писал:
«Я сразу влюбился в этот фильм. Таких историй нам сегодня очень не хватает. А ведь они делают человека добрее и светлее. А что касается Насти… Мне уже кажется, что это моя дочка. Я просто не мог не помочь создателям этого фильма».
На момент съёмок Настя Добрынина не умела читать и все реплики заучивала со слов матери.
В финальных титрах указано: Жека — Павел Деревянко, Серёга — Юрий Колокольников, хотя на самом деле наоборот (Серёга — Павел Деревянко, а Жека — Юрий Колокольников).
В фильме снималась мать исполнительницы главной роли, Насти Добрыниной. Актриса Алевтина Добрынина сыграла кассиршу.
Во многих интернет-источниках написано, что роль отца Лены исполнил Александр Пороховщиков, но на самом деле в фильме снимался Юрий Беляев.
В 2013 году ожидался выход фильма «Кука-2» с участием французских актеров — Жерара Депардьё и Катрин Денёв.



   Похожие торренты   Торрент   Размер 
В этой теме нет новых непрочитанных сообщений. Кука (2007) BDRip-AVC от New-Team

348 | 17

2.18 ГБ

В этой теме нет новых непрочитанных сообщений. Кука (2007) BDRip от New-Team

424 | 35

1.46 ГБ

В этой теме нет новых непрочитанных сообщений. Кука (2007) BDRip 720p от New-Team

156 | 9

2.91 ГБ

В этой теме нет новых непрочитанных сообщений. Кука (2007) BDRip-AVC | iPad | O

66 | 3

2.26 ГБ

В этой теме нет новых непрочитанных сообщений. Кука (2007) BDRip 1080p

45 | 2

4.36 ГБ

В этой теме нет новых непрочитанных сообщений. Кука (2007) BDRip от HELLYWOOD

15 | 1

1.75 ГБ

В этой теме нет новых непрочитанных сообщений. Кука (2007) BDRip-AVC от ExKinoRay

0 | 2

2.16 ГБ




Вы не можете начинать темы
Вы не можете отвечать на сообщения
Вы не можете редактировать свои сообщения
Вы не можете удалять свои сообщения
Вы не можете добавлять вложения

Перейти:  
Для Мосгорсуда, Роскомнадзора и рекламодателей: mosgorsud-torrent[собачка]yandex.ru
 Вход
ppkBB3cker v.2 © 2008-2014 @ PPK
[ Time : 0.142s | 15 Queries | GZIP : Off ]

Торрент трекер RUTOR.IN, Не можете зайти на rutor.org? Какой новый адрес рутор? Какое зеркало рутор? Не работает rutor.org и зеркала? Тогда наш торрент специально для вас. Rutor.in неофициальное зеркало rutor. В случае если у Вас заблокирован rutor или вдруг Вы не можете на него зайти, то Вы без труда сможете скачать бесплатно и без рекламы последние новинки кино, игр, сериалов и прочего у нас, на Rutor.in. Не нужно использовать прокси, чтобы зайти на рутор, достаточно воспользоваться нашим ресурсом. Все новые фильмы, игры, сериалы, книги и музыка за 2013 и 2014 годы через торрент бесплатно. Скачивайте фильмы в хорошем качестве, игры для пк, xbox, playstation без регистрации. У нас вы найдете новые Зарубежные сериалы и Русские сериалы 2013, 2014, 2015 годов. Оставайтесь с нами, качайте любимые фильмы, игры, сериалы, книги и музыку.