img image001 image001 image001 image001 image001 image001 image001 image001 image001 image001 image001 image001 image001 image001 image001

Planets Sun Sun Sun
Статистика раздачи
Автор: Nickolas3434 | Размер: 2.18 ГБ | Добавлен: 18 июл 2014
Раздают: 357    Качают: 20
Скачать торрент
Скачать торрент
Описание торрента

СообщениеДобавлено: 18 июл 2014 

«Кино про любовь...»



Страна: Россия
Производство: Staralis Film Company
Жанр: драма
Год выпуска: 2007
Продолжительность: 01:44:37

Перевод: Не требуется
Оригинальная аудиодорожка: русский
Cубтитры: нет

Режиссер: Ярослав Чеважевский

В ролях:
Павел Деревянко, Дмитрий Дюжев, Марина Голуб, Андрей Ильин, Юрий Колокольников, Ирина Купченко, Александр Половцев, Дина Корзун, Настя Добрынина и др.

Описание:
Лене 38 лет. Жизнь, казалось бы, налажена — Москва, карьера, «престижный» бойфренд… Но Лена сознает, что это — путь в никуда, что при внешнем благополучии она потеряла что-то очень важное и что пришла пора, наконец, пересмотреть свою жизнь. Либо сейчас, либо уже никогда…
Кука живет в Петербурге совершенно одна. Она очень смышленая и очень взрослая. Кука все делает сама — и в магазин ходит, и еду готовит, и за домом следит. Кука смелая. Куке — 6 лет. Однажды Лена и Кука встречаются…







Исходник: Blu-ray 1080p
Тип релиза: BDRip-AVC
Контейнер: MKV

Видео: 1024x576 (16:9), 23,976 fps, H264 ~ 2540 kbps avg, 0.180 bit/pixel
Аудио: 48 kHz, Dolby Digital AC3 5.1, 448 kbps

Раздача от:
Общее
Полное имя : Kuka.2007.BDRip-AVC_[New-team]_by_AVP_Studio.mkv
Формат : Matroska
Версия формата : Version 2
Размер файла : 2,18 Гбайт
Продолжительность : 1 ч. 44 м.
Общий поток : 2988 Кбит/сек
Дата кодирования : UTC 2014-07-16 16:10:44
Программа кодирования : mkvmerge v6.1.0 ('Old Devil') built on Mar 4 2013 09:10:42
Библиотека кодирования : libebml v1.3.0 + libmatroska v1.4.0

Видео
Идентификатор : 1
Формат : AVC
Формат/Информация : Advanced Video Codec
Профиль формата : High@L4.1
Параметр CABAC формата : Да
Параметр ReFrames формата : 8 кадров
Идентификатор кодека : V_MPEG4/ISO/AVC
Продолжительность : 1 ч. 44 м.
Битрейт : 2540 Кбит/сек
Ширина : 1024 пикселя
Высота : 576 пикселей
Соотношение сторон : 16:9
Режим частоты кадров : Постоянный
Частота кадров : 23,976 кадра/сек
Цветовое пространство : YUV
Субдискретизация насыщенности : 4:2:0
Битовая глубина : 8 бит
Тип развёртки : Прогрессивная
Бит/(Пиксели*Кадры) : 0.180
Размер потока : 1,81 Гбайт (83%)
Библиотека кодирования : x264 core 138 r2356 a1d3d17
Настройки программы : cabac=1 / ref=8 / deblock=1:-3:-2 / analyse=0x3:0x113 / me=umh / subme=10 / psy=1 / psy_rd=1.00:0.05 / mixed_ref=1 / me_range=32 / chroma_me=1 / trellis=2 / 8x8dct=1 / cqm=0 / deadzone=21,11 / fast_pskip=0 / chroma_qp_offset=-3 / threads=6 / lookahead_threads=1 / sliced_threads=0 / nr=0 / decimate=0 / interlaced=0 / bluray_compat=0 / constrained_intra=0 / bframes=8 / b_pyramid=2 / b_adapt=2 / b_bias=0 / direct=3 / weightb=1 / open_gop=0 / weightp=2 / keyint=240 / keyint_min=24 / scenecut=40 / intra_refresh=0 / rc_lookahead=40 / rc=2pass / mbtree=1 / bitrate=2540 / ratetol=1.0 / qcomp=0.60 / qpmin=0 / qpmax=69 / qpstep=4 / cplxblur=20.0 / qblur=0.5 / ip_ratio=1.40 / aq=1:1.00
Default : Да
Forced : Нет

Аудио
Идентификатор : 2
Формат : AC-3
Формат/Информация : Audio Coding 3
Расширение режима : CM (complete main)
Параметр Endianness формата : Big
Идентификатор кодека : A_AC3
Продолжительность : 1 ч. 44 м.
Вид битрейта : Постоянный
Битрейт : 448 Кбит/сек
Каналы : 6 каналов
Расположение каналов : Front: L C R, Side: L R, LFE
Частота : 48,0 КГц
Битовая глубина : 16 бит
Метод сжатия : С потерями
Размер потока : 335 Мбайт (15%)
Default : Да
Forced : Нет



Над музыкальным оформлением картины работало сразу несколько известных музыкантов, среди которых Максим Фадеев, Анастасия Максимова, Сергей Баневич, Олег Воляндо, Юрий Игнатов, Сергей Парамонов. На одной из вечеринок «Кинотавра» певец, музыкант и сопродюсер «Куки» Андрей Ковалёв исполнил саундтрек «Ангел» из кинофильма. Настя Добрынина танцевала вокруг в костюме маленькой феи.
Из интервью А. Ковалёва газете «Вечерняя Москва»:
ЦитатаКто-то писал:
«Я сразу влюбился в этот фильм. Таких историй нам сегодня очень не хватает. А ведь они делают человека добрее и светлее. А что касается Насти… Мне уже кажется, что это моя дочка. Я просто не мог не помочь создателям этого фильма».
На момент съёмок Настя Добрынина не умела читать и все реплики заучивала со слов матери.
В финальных титрах указано: Жека — Павел Деревянко, Серёга — Юрий Колокольников, хотя на самом деле наоборот (Серёга — Павел Деревянко, а Жека — Юрий Колокольников).
В фильме снималась мать исполнительницы главной роли, Насти Добрыниной. Актриса Алевтина Добрынина сыграла кассиршу.
Во многих интернет-источниках написано, что роль отца Лены исполнил Александр Пороховщиков, но на самом деле в фильме снимался Юрий Беляев.
В 2013 году ожидался выход фильма «Кука-2» с участием французских актеров — Жерара Депардьё и Катрин Денёв.



   Похожие торренты   Торрент   Размер 
В этой теме нет новых непрочитанных сообщений. Кука (2007) BDRip от New-Team

158 | 18

744.53 МБ

В этой теме нет новых непрочитанных сообщений. Кука (2007) BDRip от New-Team

425 | 34

1.46 ГБ

В этой теме нет новых непрочитанных сообщений. Кука (2007) BDRip 720p от New-Team

156 | 9

2.91 ГБ

В этой теме нет новых непрочитанных сообщений. Кука (2007) BDRip 1080p

45 | 2

4.36 ГБ

В этой теме нет новых непрочитанных сообщений. Кука (2007) BDRip-AVC от ExKinoRay

0 | 2

2.16 ГБ

В этой теме нет новых непрочитанных сообщений. Кука (2007) BDRip от HELLYWOOD

15 | 1

1.75 ГБ

В этой теме нет новых непрочитанных сообщений. Кука (2007) BDRip-AVC | iPad | O

66 | 3

2.26 ГБ




Вы не можете начинать темы
Вы не можете отвечать на сообщения
Вы не можете редактировать свои сообщения
Вы не можете удалять свои сообщения
Вы не можете добавлять вложения

Перейти:  
Для Мосгорсуда, Роскомнадзора и рекламодателей: mosgorsud-torrent[собачка]yandex.ru
 Вход
ppkBB3cker v.2 © 2008-2014 @ PPK
[ Time : 3.495s | 16 Queries | GZIP : On ]

Торрент трекер RUTOR.IN, Не можете зайти на rutor.org? Какой новый адрес рутор? Какое зеркало рутор? Не работает rutor.org и зеркала? Тогда наш торрент специально для вас. Rutor.in неофициальное зеркало rutor. В случае если у Вас заблокирован rutor или вдруг Вы не можете на него зайти, то Вы без труда сможете скачать бесплатно и без рекламы последние новинки кино, игр, сериалов и прочего у нас, на Rutor.in. Не нужно использовать прокси, чтобы зайти на рутор, достаточно воспользоваться нашим ресурсом. Все новые фильмы, игры, сериалы, книги и музыка за 2013 и 2014 годы через торрент бесплатно. Скачивайте фильмы в хорошем качестве, игры для пк, xbox, playstation без регистрации. У нас вы найдете новые Зарубежные сериалы и Русские сериалы 2013, 2014, 2015 годов. Оставайтесь с нами, качайте любимые фильмы, игры, сериалы, книги и музыку.