img image001 image001 image001 image001 image001 image001 image001 image001 image001 image001 image001 image001 image001 image001 image001

Planets Sun Sun Sun
Статистика раздачи
Автор: Nickolas3434 | Размер: 1.46 ГБ | Добавлен: 18 июл 2014
Раздают: 237    Качают: 32
Скачать торрент
Скачать торрент
Описание торрента

СообщениеДобавлено: 18 июл 2014 

Страна: Россия, Франция
Производство: Compagnie des Films, Студия Горького

Жанр: драма, комедия, криминал
Год выпуска: 1997
Продолжительность: 01:54:18

Перевод: не требуется
Оригинальная аудиодорожка: русский
Cубтитры: нет

Режиссер: Валерий Тодоровский

В ролях:
Чулпaн Xaмaтoвa, Динa Кopзун, Maкcим Cухaнoв, Hикитa Tюнин, Александр Яцко, Александр Горбунов, Павел Паймалов, Сергей Юшкевич, Алексей Дьяков, Андрей Дубовский, Ярослав Бойко, Юнона Караева...

Описание:
Героиня фильма — Рита вынуждена скрываться; ее друг Алеша исчез, проиграв в рулетку чужие деньги. Ее спасает и прячет у себя глухая танцовщица ночного клуба Яя, живущая единственной мечтой — накопить денег и уехать в некую сказочную «страну глухих» где живут только глухие люди и поэтому царит добро и справедливость. Неожиданно девушки оказываются в центре жестокого столкновения двух кланов мафии, глухих и слышащих…





Исходник: DVD9 R5
Тип релиза: DVDRip
Контейнер: AVI

Видео: 720x400 (16:9), 25 fps, XviD ~ 1367 kbps avg, 0.190 bit/pixel
Аудио: 48 kHz, Dolby Digital AC3 5.1, 448 kbps

Раздача от:
Общее
Полное имя : Strana.gluhih.1997.DVDRip_[New-team]_by_AVP_Studio.avi
Формат : AVI
Формат/Информация : Audio Video Interleave
Размер файла : 1,46 Гбайт
Продолжительность : 1 ч. 54 м.
Общий поток : 1824 Кбит/сек
Программа кодирования : VirtualDubModRus 1.5.10.2 (build 2542/release)
Библиотека кодирования : VirtualDubMod build 2542/release

Видео
Идентификатор : 0
Формат : MPEG-4 Visual
Профиль формата : Advanced Simple@L5
Параметр BVOP формата : 1
Параметр QPel формата : Нет
Параметр GMC формата : Без точки перехода
Параметр матрицы формата : Выборочная
Идентификатор кодека : XVID
Идентификатор кодека/Подсказка : XviD
Продолжительность : 1 ч. 54 м.
Битрейт : 1367 Кбит/сек
Ширина : 720 пикселей
Высота : 400 пикселей
Соотношение сторон : 16:9
Частота кадров : 25,000 кадров/сек
Цветовое пространство : YUV
Субдискретизация насыщенности : 4:2:0
Битовая глубина : 8 бит
Тип развёртки : Прогрессивная
Метод сжатия : С потерями
Бит/(Пиксели*Кадры) : 0.190
Размер потока : 1,09 Гбайт (75%)
Библиотека кодирования : XviD 73

Аудио
Идентификатор : 1
Формат : AC-3
Формат/Информация : Audio Coding 3
Расширение режима : CM (complete main)
Параметр Endianness формата : Big
Идентификатор кодека : 2000
Продолжительность : 1 ч. 54 м.
Вид битрейта : Постоянный
Битрейт : 448 Кбит/сек
Каналы : 6 каналов
Расположение каналов : Front: L C R, Side: L R, LFE
Частота : 48,0 КГц
Битовая глубина : 16 бит
Метод сжатия : С потерями
Задержка видео : 80 мс.
Размер потока : 366 Мбайт (25%)
Выравнивание : Разделение по промежуткам
Продолжительность промежутка : 40 мс. (1,00 видеокадр)
Время предзагрузки промежутка : 500 мс





   Похожие торренты   Торрент   Размер 
В этой теме нет новых непрочитанных сообщений. Страна глухих (1997) DVDRip от New-Team

9 | 5

745.22 МБ

В этой теме нет новых непрочитанных сообщений. Страна глухих (1997) DVDRip-AVC от New-Team

59 | 7

1.45 ГБ

В этой теме нет новых непрочитанных сообщений. Страна глухих (1998) DVDRip

21 | 4

1.46 ГБ

В этой теме нет новых непрочитанных сообщений. Страна глухих (1998) DVDRip

3 | 4

746.03 МБ

В этой теме нет новых непрочитанных сообщений. Страна глухих (1998) DVDRip

57 | 3

2 ГБ

В этой теме нет новых непрочитанных сообщений. Чародей 2: Страна Великого Дракона / Spellbinder: Land of the Dragon Lord [S02] (1997) DVDRip-AVC | P

24 | 12

12.45 ГБ

В этой теме нет новых непрочитанных сообщений. Полицейские / Страна полицейских / Cop Land (1997) BDRip от HQCLUB

0 | 9

2.18 ГБ




Вы не можете начинать темы
Вы не можете отвечать на сообщения
Вы не можете редактировать свои сообщения
Вы не можете удалять свои сообщения
Вы не можете добавлять вложения

Перейти:  
Для Мосгорсуда, Роскомнадзора и рекламодателей: mosgorsud-torrent[собачка]yandex.ru
 Вход
ppkBB3cker v.2 © 2008-2014 @ PPK
[ Time : 0.036s | 17 Queries | GZIP : Off ]

cron