img image001 image001 image001 image001 image001 image001 image001 image001 image001 image001 image001 image001 image001 image001 image001

Planets Sun Sun Sun
Статистика раздачи
Автор: Nickolas3434 | Размер: 1.45 ГБ | Добавлен: 20 июл 2014
Раздают: 66    Качают: 8
Скачать торрент
Скачать торрент
Описание торрента

СообщениеДобавлено: 20 июл 2014 

[img=right]http://i67.fastpic.ru/big/2014/0718/fc/0a8f87d77f7e471ea9de83492c825bfc.png[/img]
Страна: Россия, Франция
Производство: Compagnie des Films, Студия Горького

Жанр: драма, комедия, криминал
Год выпуска: 1997
Продолжительность: 01:54:18

Перевод: не требуется
Оригинальная аудиодорожка: русский
Cубтитры: нет

Режиссер: Валерий Тодоровский

В ролях:
Чулпaн Xaмaтoвa, Динa Кopзун, Maкcим Cухaнoв, Hикитa Tюнин, Александр Яцко, Александр Горбунов, Павел Паймалов, Сергей Юшкевич, Алексей Дьяков, Андрей Дубовский, Ярослав Бойко, Юнона Караева...

Описание:
Героиня фильма — Рита вынуждена скрываться; ее друг Алеша исчез, проиграв в рулетку чужие деньги. Ее спасает и прячет у себя глухая танцовщица ночного клуба Яя, живущая единственной мечтой — накопить денег и уехать в некую сказочную «страну глухих» где живут только глухие люди и поэтому царит добро и справедливость. Неожиданно девушки оказываются в центре жестокого столкновения двух кланов мафии, глухих и слышащих…





Исходник: DVD9 R5
Тип релиза: DVDRip-AVC
Контейнер: MKV

Видео: 720->818x460 (16:9), 25 fps, H264 ~ 1367 kbps avg, 0.165 bit/pixel
Аудио: 48 kHz, Dolby Digital AC3 5.1, 448 kbps

Раздача от:
Общее
Полное имя : Strana.gluhih.1997.DVDRip-AVC_[New-team]_by_AVP_Studio.mkv
Формат : Matroska
Версия формата : Version 2
Размер файла : 1,45 Гбайт
Продолжительность : 1 ч. 54 м.
Общий поток : 1817 Кбит/сек
Дата кодирования : UTC 2014-07-18 14:16:54
Программа кодирования : mkvmerge v6.1.0 ('Old Devil') built on Mar 4 2013 09:10:42
Библиотека кодирования : libebml v1.3.0 + libmatroska v1.4.0

Видео
Идентификатор : 1
Формат : AVC
Формат/Информация : Advanced Video Codec
Профиль формата : High@L4.1
Параметр CABAC формата : Да
Параметр ReFrames формата : 8 кадров
Идентификатор кодека : V_MPEG4/ISO/AVC
Продолжительность : 1 ч. 54 м.
Битрейт : 1367 Кбит/сек
Ширина : 720 пикселей
Высота : 460 пикселей
Соотношение сторон : 16:9
Режим частоты кадров : Постоянный
Частота кадров : 25,000 кадров/сек
Цветовое пространство : YUV
Субдискретизация насыщенности : 4:2:0
Битовая глубина : 8 бит
Тип развёртки : Прогрессивная
Бит/(Пиксели*Кадры) : 0.165
Размер потока : 1,06 Гбайт (73%)
Библиотека кодирования : x264 core 138 r2356 a1d3d17
Настройки программы : cabac=1 / ref=8 / deblock=1:-2:-1 / analyse=0x3:0x113 / me=umh / subme=10 / psy=1 / psy_rd=1.00:0.05 / mixed_ref=1 / me_range=32 / chroma_me=1 / trellis=2 / 8x8dct=1 / cqm=0 / deadzone=21,11 / fast_pskip=0 / chroma_qp_offset=-3 / threads=6 / lookahead_threads=1 / sliced_threads=0 / nr=0 / decimate=0 / interlaced=0 / bluray_compat=0 / constrained_intra=0 / bframes=8 / b_pyramid=2 / b_adapt=2 / b_bias=0 / direct=3 / weightb=1 / open_gop=0 / weightp=2 / keyint=250 / keyint_min=25 / scenecut=40 / intra_refresh=0 / rc=2pass / mbtree=0 / bitrate=1367 / ratetol=1.0 / qcomp=0.60 / qpmin=0 / qpmax=69 / qpstep=4 / cplxblur=20.0 / qblur=0.5 / ip_ratio=1.40 / pb_ratio=1.30 / aq=1:1.00
Default : Да
Forced : Нет

Аудио
Идентификатор : 2
Формат : AC-3
Формат/Информация : Audio Coding 3
Расширение режима : CM (complete main)
Параметр Endianness формата : Big
Идентификатор кодека : A_AC3
Продолжительность : 1 ч. 54 м.
Вид битрейта : Постоянный
Битрейт : 448 Кбит/сек
Каналы : 6 каналов
Расположение каналов : Front: L C R, Side: L R, LFE
Частота : 48,0 КГц
Битовая глубина : 16 бит
Метод сжатия : С потерями
Задержка видео : 80 мс.
Размер потока : 366 Мбайт (25%)
Default : Да
Forced : Нет





   Похожие торренты   Торрент   Размер 
В этой теме нет новых непрочитанных сообщений. Страна глухих (1997) DVDRip от New-Team

8 | 6

745.22 МБ

В этой теме нет новых непрочитанных сообщений. Страна глухих (1997) DVDRip от New-Team

242 | 34

1.46 ГБ

В этой теме нет новых непрочитанных сообщений. Страна глухих (1998) DVDRip

21 | 4

1.46 ГБ

В этой теме нет новых непрочитанных сообщений. Страна глухих (1998) DVDRip

3 | 4

746.03 МБ

В этой теме нет новых непрочитанных сообщений. Страна глухих (1998) DVDRip

57 | 3

2 ГБ

В этой теме нет новых непрочитанных сообщений. Чародей 2: Страна Великого Дракона / Spellbinder: Land of the Dragon Lord [S02] (1997) DVDRip-AVC | P

28 | 13

12.45 ГБ

В этой теме нет новых непрочитанных сообщений. Полицейские / Страна полицейских / Cop Land (1997) BDRip от HQCLUB

0 | 9

2.18 ГБ




Вы не можете начинать темы
Вы не можете отвечать на сообщения
Вы не можете редактировать свои сообщения
Вы не можете удалять свои сообщения
Вы не можете добавлять вложения

Перейти:  
Для Мосгорсуда, Роскомнадзора и рекламодателей: mosgorsud-torrent[собачка]yandex.ru
 Вход
ppkBB3cker v.2 © 2008-2014 @ PPK
[ Time : 0.028s | 16 Queries | GZIP : Off ]

Торрент трекер RUTOR.IN, Не можете зайти на rutor.org? Какой новый адрес рутор? Какое зеркало рутор? Не работает rutor.org и зеркала? Тогда наш торрент специально для вас. Rutor.in неофициальное зеркало rutor. В случае если у Вас заблокирован rutor или вдруг Вы не можете на него зайти, то Вы без труда сможете скачать бесплатно и без рекламы последние новинки кино, игр, сериалов и прочего у нас, на Rutor.in. Не нужно использовать прокси, чтобы зайти на рутор, достаточно воспользоваться нашим ресурсом. Все новые фильмы, игры, сериалы, книги и музыка за 2013 и 2014 годы через торрент бесплатно. Скачивайте фильмы в хорошем качестве, игры для пк, xbox, playstation без регистрации. У нас вы найдете новые Зарубежные сериалы и Русские сериалы 2013, 2014, 2015 годов. Оставайтесь с нами, качайте любимые фильмы, игры, сериалы, книги и музыку.