img image001 image001 image001 image001 image001 image001 image001 image001 image001 image001 image001 image001 image001 image001 image001

Planets Sun Sun Sun
Статистика раздачи
Автор: Nickolas3434 | Размер: 744.16 МБ | Добавлен: 20 июл 2014
Раздают: 6    Качают: 4
Скачать торрент
Скачать торрент
Описание торрента

СообщениеДобавлено: 20 июл 2014 

Страна: СССР
Производство: ТО Экран

Жанр: драма, военный
Год выпуска: 1970
Продолжительность: 01:48:48

Перевод: не требуется
Оригинальная аудиодорожка: русский
Cубтитры: нет

Режиссер: Марлен Хуциев

В ролях:
Александр Аржиловский, Петр Тодоровский, Сергей Шакуров, Виктор Уральский, Игорь Класс, Вацловас Бледис, Эугения Плешките, Владимир Гостюхин...

Описание:
Драма разыгрывается в первые послевоенные дни в одной из немецких деревень, где останавливается группа советских солдат. Эти несколько дней станут решающими в судьбе богатого крестьянина Рашке. Ему, пособнику гибели многих поляков, предстоит осмыслить прожитое, пребывая в страхе и надежде избежать собственной смерти…





Исходник: DVD5 R5
Тип релиза: DVDRip
Контейнер: AVI

Видео: 576x448 (1,286:1), 25 fps, XviD ~ 818 kbps avg, 0.127 bit/pixel
Аудио: 48 kHz, MP3 2.0, 128 kbps

Раздача от:
Общее
Полное имя : Byl.mesyac.may.1970.DVDRip-745_[New-team]_by_AVP_Studio.avi
Формат : AVI
Формат/Информация : Audio Video Interleave
Размер файла : 744 Мбайт
Продолжительность : 1 ч. 48 м.
Общий поток : 956 Кбит/сек
Программа кодирования : VirtualDubModRus 1.5.10.2 (build 2542/release)
Библиотека кодирования : VirtualDubMod build 2542/release

Видео
Идентификатор : 0
Формат : MPEG-4 Visual
Профиль формата : Advanced Simple@L5
Параметр BVOP формата : 1
Параметр QPel формата : Нет
Параметр GMC формата : Без точки перехода
Параметр матрицы формата : Выборочная
Идентификатор кодека : XVID
Идентификатор кодека/Подсказка : XviD
Продолжительность : 1 ч. 48 м.
Битрейт : 818 Кбит/сек
Ширина : 576 пикселей
Высота : 448 пикселей
Соотношение сторон : 1,286
Частота кадров : 25,000 кадров/сек
Цветовое пространство : YUV
Субдискретизация насыщенности : 4:2:0
Битовая глубина : 8 бит
Тип развёртки : Прогрессивная
Метод сжатия : С потерями
Бит/(Пиксели*Кадры) : 0.127
Размер потока : 637 Мбайт (86%)
Библиотека кодирования : XviD 73

Аудио
Идентификатор : 1
Формат : MPEG Audio
Версия формата : Version 1
Профиль формата : Layer 3
Идентификатор кодека : 55
Идентификатор кодека/Подсказка : MP3
Продолжительность : 1 ч. 48 м.
Вид битрейта : Постоянный
Битрейт : 128 Кбит/сек
Каналы : 2 канала
Частота : 48,0 КГц
Метод сжатия : С потерями
Размер потока : 99,6 Мбайт (13%)
Выравнивание : Соединение по промежуткам
Продолжительность промежутка : 40 мс. (1,00 видеокадр)
Время предзагрузки промежутка : 504 мс.
Библиотека кодирования : LAME3.99r
Настройки программы : -m s -V 4 -q 2 -lowpass 17 -b 128





   Похожие торренты   Торрент   Размер 
В этой теме нет новых непрочитанных сообщений. Был месяц май (1970) DVDRip-AVC от New-Team

66 | 7

1.46 ГБ

В этой теме нет новых непрочитанных сообщений. Был месяц май (1970) DVDRip от New-Team

147 | 14

1.46 ГБ

В этой теме нет новых непрочитанных сообщений. Был месяц май (1970) TVRip

10 | 2

1.42 ГБ

В этой теме нет новых непрочитанных сообщений. Был месяц май (1970) SATRip-AVC от ExKinoRay

26 | 9

2.09 ГБ

В этой теме нет новых непрочитанных сообщений. Легавый / Un conde (1970) DVDRip от New-Team

36 | 12

1.58 ГБ

В этой теме нет новых непрочитанных сообщений. Человек-оркестр / L'homme orchestre (1970) DVDRip от New-Team

37 | 8

743.59 МБ

В этой теме нет новых непрочитанных сообщений. Человек-оркестр / L'homme orchestre (1970) DVDRip-AVC от New-Team

14 | 4

1.46 ГБ




Вы не можете начинать темы
Вы не можете отвечать на сообщения
Вы не можете редактировать свои сообщения
Вы не можете удалять свои сообщения
Вы не можете добавлять вложения

Перейти:  
Для Мосгорсуда, Роскомнадзора и рекламодателей: mosgorsud-torrent[собачка]yandex.ru
 Вход
ppkBB3cker v.2 © 2008-2014 @ PPK
[ Time : 0.028s | 17 Queries | GZIP : Off ]

Торрент трекер RUTOR.IN, Не можете зайти на rutor.org? Какой новый адрес рутор? Какое зеркало рутор? Не работает rutor.org и зеркала? Тогда наш торрент специально для вас. Rutor.in неофициальное зеркало rutor. В случае если у Вас заблокирован rutor или вдруг Вы не можете на него зайти, то Вы без труда сможете скачать бесплатно и без рекламы последние новинки кино, игр, сериалов и прочего у нас, на Rutor.in. Не нужно использовать прокси, чтобы зайти на рутор, достаточно воспользоваться нашим ресурсом. Все новые фильмы, игры, сериалы, книги и музыка за 2013 и 2014 годы через торрент бесплатно. Скачивайте фильмы в хорошем качестве, игры для пк, xbox, playstation без регистрации. У нас вы найдете новые Зарубежные сериалы и Русские сериалы 2013, 2014, 2015 годов. Оставайтесь с нами, качайте любимые фильмы, игры, сериалы, книги и музыку.