img image001 image001 image001 image001 image001 image001 image001 image001 image001 image001 image001 image001 image001 image001 image001

Planets Sun Sun Sun
Статистика раздачи
Автор: Nickolas3434 | Размер: 744.52 МБ | Добавлен: 22 июл 2014
Раздают: 98    Качают: 15
Скачать торрент
Скачать торрент
Описание торрента

СообщениеДобавлено: 22 июл 2014 

Страна: СССР
Производство: Студия Горького

Жанр: боевик
Год выпуска: 1981
Продолжительность: 01:19:29

Перевод: не требуется
Оригинальная аудиодорожка: русский
Cубтитры: нет

Режиссер: Самвел Гаспаров

В ролях:
Сергей Никоненко, Михаил Козаков, Владимир Грамматиков, Михаил Пуговкин, Евгений Бакалов, Тимофей Спивак, Сергей Ульянов, Михарбек Кокоев, Лариса Белогурова, Нина Меньшикова, Марина Яковлева, Борис Гитин, Георгий Милляр, Александр Галибин, Виктор Андриенко...

Описание:
Отгремела гражданская война. В маленьком южном городке появился шестой по счету начальник милиции. Пятеро предшественников Глодова вместе с другими активистами были зверски убиты бандой неуловимого Вахрамеева. И теперь Глодову с несколькими верными помощниками предстояла смертельная схватка с сильным врагом…





Исходник: DVD9 R5
Тип релиза: DVDRip
Контейнер: AVI

Видео: 688x288 (2,40:1), 25 fps, XviD ~ 1172 kbps avg, 0.237 bit/pixel
Аудио: 48 kHz, MP3 2.0, 128 kbps

Раздача от:
Общее
Полное имя : Shestoy.1981.DVDRip-745_[New-team]_by_AVP_Studio.avi
Формат : AVI
Формат/Информация : Audio Video Interleave
Размер файла : 745 Мбайт
Продолжительность : 1 ч. 19 м.
Общий поток : 1309 Кбит/сек
Программа кодирования : VirtualDubModRus 1.5.10.2 (build 2542/release)
Библиотека кодирования : VirtualDubMod build 2542/release

Видео
Идентификатор : 0
Формат : MPEG-4 Visual
Профиль формата : Advanced Simple@L5
Параметр BVOP формата : 1
Параметр QPel формата : Нет
Параметр GMC формата : Без точки перехода
Параметр матрицы формата : Выборочная
Идентификатор кодека : XVID
Идентификатор кодека/Подсказка : XviD
Продолжительность : 1 ч. 19 м.
Битрейт : 1172 Кбит/сек
Ширина : 688 пикселей
Высота : 288 пикселей
Соотношение сторон : 2,40:1
Частота кадров : 25,000 кадров/сек
Цветовое пространство : YUV
Субдискретизация насыщенности : 4:2:0
Битовая глубина : 8 бит
Тип развёртки : Прогрессивная
Метод сжатия : С потерями
Бит/(Пиксели*Кадры) : 0.237
Размер потока : 666 Мбайт (89%)
Библиотека кодирования : XviD 73

Аудио
Идентификатор : 1
Формат : MPEG Audio
Версия формата : Version 1
Профиль формата : Layer 3
Идентификатор кодека : 55
Идентификатор кодека/Подсказка : MP3
Продолжительность : 1 ч. 19 м.
Вид битрейта : Постоянный
Битрейт : 128 Кбит/сек
Каналы : 2 канала
Частота : 48,0 КГц
Метод сжатия : С потерями
Размер потока : 72,8 Мбайт (10%)
Выравнивание : Соединение по промежуткам
Продолжительность промежутка : 40 мс. (1,00 видеокадр)
Время предзагрузки промежутка : 504 мс.
Библиотека кодирования : LAME3.99r
Настройки программы : -m s -V 4 -q 2 -lowpass 17 -b 128





   Похожие торренты   Торрент   Размер 
В этой теме нет новых непрочитанных сообщений. Шестой (1981) DVDRip-AVC от New-Team

81 | 7

1.46 ГБ

В этой теме нет новых непрочитанных сообщений. Шестой (1981) DVDRip от New-Team

171 | 8

1.46 ГБ

В этой теме нет новых непрочитанных сообщений. Шестой (1981) DVDRip

27 | 4

1.37 ГБ

В этой теме нет новых непрочитанных сообщений. Шестой (1981) DVDRip-AVC от ExKinoRay

238 | 18

1.83 ГБ

В этой теме нет новых непрочитанных сообщений. Шестой (1981) DVDRip by FREEISLAND

9 | 3

1.47 ГБ

В этой теме нет новых непрочитанных сообщений. Шестой (1981) VHSRip

0 | 415

645.71 МБ

В этой теме нет новых непрочитанных сообщений. Туз / Asso (1981) DVDRip от New-Team

10 | 3

1.46 ГБ




Вы не можете начинать темы
Вы не можете отвечать на сообщения
Вы не можете редактировать свои сообщения
Вы не можете удалять свои сообщения
Вы не можете добавлять вложения

Перейти:  
Для Мосгорсуда, Роскомнадзора и рекламодателей: mosgorsud-torrent[собачка]yandex.ru
 Вход
ppkBB3cker v.2 © 2008-2014 @ PPK
[ Time : 0.036s | 17 Queries | GZIP : Off ]

cron