img image001 image001 image001 image001 image001 image001 image001 image001 image001 image001 image001 image001 image001 image001 image001

Planets Sun Sun Sun
Статистика раздачи
Автор: Nickolas3434 | Размер: 1.45 ГБ | Добавлен: 22 июл 2014
Раздают: 119    Качают: 12
Скачать торрент
Скачать торрент
Описание торрента

СообщениеДобавлено: 22 июл 2014 

Страна: СССР
Производство: Мосфильм

Жанр: мелодрама, комедия
Год выпуска: 1957
Продолжительность: 01:25:08

Перевод: не требуется
Оригинальная аудиодорожка: русский
Cубтитры: нет

Режиссер: Эльдар Рязанов

В ролях:
Светлана Карпинская, Николай Рыбников, Эраст Гарин, Василий Топорков, Юрий Белов, Светлана Щербак, Зоя Федорова, Сергей Филиппов, Павел Тарасов, Рина Зеленая, Георгий Георгиу, Ольга Аросева, Татьяна Гурецкая, Мария Фигнер, Евгений Гуров...

Описание:
Забавные приключения молодого строителя Пашки Гусарова начались с того момента, как в поезде он встретил и полюбил Катю. Счастье делает человека беспечным, и на вокзале его ждет множество необычных событий. Однако именно здесь влюбленные встречаются вновь, и больше уже не расстаются…





Исходник: DVD5 R5
Тип релиза: DVDRip
Контейнер: AVI

Видео: 688x512 (4:3), 25 fps, XviD ~ 2242 kbps avg, 0.255 bit/pixel
Аудио: 48 kHz, Dolby Digital AC3 2.0, 192 kbps

Раздача от:
Общее
Полное имя : Devushka.bez.adresa.1957.DVDRip_[New-team]_by_AVP_Studio.avi
Формат : AVI
Формат/Информация : Audio Video Interleave
Размер файла : 1,45 Гбайт
Продолжительность : 1 ч. 25 м.
Общий поток : 2444 Кбит/сек
Программа кодирования : VirtualDubModRus 1.5.10.2 (build 2542/release)
Библиотека кодирования : VirtualDubMod build 2542/release

Видео
Идентификатор : 0
Формат : MPEG-4 Visual
Профиль формата : Advanced Simple@L5
Параметр BVOP формата : 1
Параметр QPel формата : Нет
Параметр GMC формата : Без точки перехода
Параметр матрицы формата : Выборочная
Идентификатор кодека : XVID
Идентификатор кодека/Подсказка : XviD
Продолжительность : 1 ч. 25 м.
Битрейт : 2242 Кбит/сек
Ширина : 688 пикселей
Высота : 512 пикселей
Соотношение сторон : 4:3
Частота кадров : 25,000 кадров/сек
Цветовое пространство : YUV
Субдискретизация насыщенности : 4:2:0
Битовая глубина : 8 бит
Тип развёртки : Прогрессивная
Метод сжатия : С потерями
Бит/(Пиксели*Кадры) : 0.255
Размер потока : 1,33 Гбайт (92%)
Библиотека кодирования : XviD 73

Аудио
Идентификатор : 1
Формат : AC-3
Формат/Информация : Audio Coding 3
Расширение режима : CM (complete main)
Параметр Endianness формата : Big
Идентификатор кодека : 2000
Продолжительность : 1 ч. 25 м.
Вид битрейта : Постоянный
Битрейт : 192 Кбит/сек
Каналы : 2 канала
Расположение каналов : Front: L R
Частота : 48,0 КГц
Битовая глубина : 16 бит
Метод сжатия : С потерями
Размер потока : 117 Мбайт (8%)
Выравнивание : Разделение по промежуткам
Продолжительность промежутка : 40 мс. (1,00 видеокадр)
Время предзагрузки промежутка : 500 мс





   Похожие торренты   Торрент   Размер 
В этой теме нет новых непрочитанных сообщений. Девушка без адреса (1957) DVDRip-AVC от New-Team

329 | 51

1.46 ГБ

В этой теме нет новых непрочитанных сообщений. Девушка без адреса (1957) DVDRip от New-Team

328 | 28

742.99 МБ

В этой теме нет новых непрочитанных сообщений. Девушка без адреса (1957) DVDRip от Киномагия

127 | 19

1.37 ГБ

В этой теме нет новых непрочитанных сообщений. Девушка без адреса (1957) DVD5

126 | 37

4.26 ГБ

В этой теме нет новых непрочитанных сообщений. Шторм (1957) DVDRip от New-Team

0 | 2

1.09 ГБ

В этой теме нет новых непрочитанных сообщений. Дон Кихот (1957) DVDRip-AVC от New-Team

6 | 0

1.08 ГБ

В этой теме нет новых непрочитанных сообщений. Ботагоз (1957) DVDRip-AVC от New-Team

0 | 2

1.46 ГБ




Вы не можете начинать темы
Вы не можете отвечать на сообщения
Вы не можете редактировать свои сообщения
Вы не можете удалять свои сообщения
Вы не можете добавлять вложения

Перейти:  
Для Мосгорсуда, Роскомнадзора и рекламодателей: mosgorsud-torrent[собачка]yandex.ru
 Вход
ppkBB3cker v.2 © 2008-2014 @ PPK
[ Time : 0.046s | 18 Queries | GZIP : Off ]

cron