img image001 image001 image001 image001 image001 image001 image001 image001 image001 image001 image001 image001 image001 image001 image001

Planets Sun Sun Sun
Статистика раздачи
Автор: Nickolas3434 | Размер: 698.79 МБ | Добавлен: 24 июл 2014
Раздают: 199    Качают: 15
Скачать торрент
Скачать торрент
Описание торрента

СообщениеДобавлено: 24 июл 2014 

Производство: Россия, Канал Россия, Красная стрела, Студия Тритэ
Режиссер: Глеб Орлов
Жанр: Драма, спорт, биография
Год выпуска: 2014 г.
Продолжительность: 01:56:00

Российская премьера: 10 июля 2014, «Централ Партнершип»
Дата выхода DVD: 26 августа 2014, «Lizard Cinema Trade»
Дата выхода Blu-Ray: 26 августа 2014, «Lizard Cinema Trade»
В ролях: Михаил Пореченков, Дени Лаван, Владимир Ильин, Юрий Колокольников, Роман Мадянов, Александр Михайлов, Катерина Шпица, Максим Сапрыкин, Петр Крылов, Андрей Дебрин
Описание: Его называли Чемпион чемпионов. О силе и волевом характере Поддубного слагали легенды. И в 50 великий борец играючи одолевал молодых атлетов, а вопросах чести и справедливости не знал компромиссов. И лишь любовь смогла уложить Русского Богатыря на обе лопатки…





Качество видео: CamRip
Контейнер: AVI
Видео кодек: XviD
Аудио кодек: MP3
Видео: 640x336, 704 Кбит/сек, 25,000 кадров/сек
Аудио: 128 Кбит/сек, 1 канал, 48,0 КГц

Общее
Полное имя : C:UsersIvanDesktopPoddubnyi.700MB.avi
Формат : AVI
Формат/Информация : Audio Video Interleave
Размер файла : 699 Мбайт
Продолжительность : 1 ч. 56 м.
Общий поток : 842 Кбит/сек
Программа кодирования : Lavf55.7.100
Библиотека кодирования : VirtualDub build 35491/release

Видео
Идентификатор : 0
Формат : MPEG-4 Visual
Профиль формата : Advanced Simple@L5
Параметр BVOP формата : 2
Параметр QPel формата : Нет
Параметр GMC формата : Без точки перехода
Параметр матрицы формата : Default (H.263)
Режим смешивания : Сжатый битовый поток
Идентификатор кодека : XVID
Идентификатор кодека/Подсказка : XviD
Продолжительность : 1 ч. 56 м.
Битрейт : 704 Кбит/сек
Ширина : 640 пикселей
Высота : 336 пикселей
Соотношение сторон : 1,905
Частота кадров : 25,000 кадров/сек
Цветовое пространство : YUV
Субдискретизация насыщенности : 4:2:0
Битовая глубина : 8 бит
Тип развёртки : Прогрессивная
Метод сжатия : С потерями
Бит/(Пиксели*Кадры) : 0.131
Размер потока : 585 Мбайт (84%)
Библиотека кодирования : XviD 64

Аудио
Идентификатор : 1
Формат : MPEG Audio
Версия формата : Version 1
Профиль формата : Layer 3
Идентификатор кодека : 55
Идентификатор кодека/Подсказка : MP3
Продолжительность : 1 ч. 56 м.
Вид битрейта : Постоянный
Битрейт : 128 Кбит/сек
Каналы : 1 канал
Частота : 48,0 КГц
Метод сжатия : С потерями
Размер потока : 106 Мбайт (15%)
Выравнивание : Разделение по промежуткам
Продолжительность промежутка : 40 мс. (1,00 видеокадр)
Время предзагрузки промежутка : 500 мс.






   Похожие торренты   Торрент   Размер 
В этой теме нет новых непрочитанных сообщений. Поддубный (2014) CAMRip

4958 | 838

1.28 ГБ

В этой теме нет новых непрочитанных сообщений. Поддубный (2014) BDRip

2560 | 60

1.45 ГБ

В этой теме нет новых непрочитанных сообщений. Поддубный (2014) WEB-DL 720p

7753 | 387

3.94 ГБ

В этой теме нет новых непрочитанных сообщений. Поддубный (2014) WEB-DLRip

1087 | 36

749.89 МБ

В этой теме нет новых непрочитанных сообщений. Поддубный (2014) WEB-DLRip-AVC

936 | 19

2.34 ГБ

В этой теме нет новых непрочитанных сообщений. Поддубный (2014) WEB-DLRip

2705 | 40

2.05 ГБ

В этой теме нет новых непрочитанных сообщений. Поддубный (2014) WEB-DLRip

12793 | 534

1.37 ГБ




Вы не можете начинать темы
Вы не можете отвечать на сообщения
Вы не можете редактировать свои сообщения
Вы не можете удалять свои сообщения
Вы не можете добавлять вложения

Перейти:  
Для Мосгорсуда, Роскомнадзора и рекламодателей: mosgorsud-torrent[собачка]yandex.ru
 Вход
ppkBB3cker v.2 © 2008-2014 @ PPK
[ Time : 0.063s | 15 Queries | GZIP : Off ]

Торрент трекер RUTOR.IN, Не можете зайти на rutor.org? Какой новый адрес рутор? Какое зеркало рутор? Не работает rutor.org и зеркала? Тогда наш торрент специально для вас. Rutor.in неофициальное зеркало rutor. В случае если у Вас заблокирован rutor или вдруг Вы не можете на него зайти, то Вы без труда сможете скачать бесплатно и без рекламы последние новинки кино, игр, сериалов и прочего у нас, на Rutor.in. Не нужно использовать прокси, чтобы зайти на рутор, достаточно воспользоваться нашим ресурсом. Все новые фильмы, игры, сериалы, книги и музыка за 2013 и 2014 годы через торрент бесплатно. Скачивайте фильмы в хорошем качестве, игры для пк, xbox, playstation без регистрации. У нас вы найдете новые Зарубежные сериалы и Русские сериалы 2013, 2014, 2015 годов. Оставайтесь с нами, качайте любимые фильмы, игры, сериалы, книги и музыку.