img image001 image001 image001 image001 image001 image001 image001 image001 image001 image001 image001 image001 image001 image001 image001

Planets Sun Sun Sun
Статистика раздачи
Автор: Nickolas3434 | Размер: 1.47 ГБ | Добавлен: 27 июл 2014
Раздают: 47    Качают: 4
Скачать торрент
Скачать торрент
Описание торрента

СообщениеДобавлено: 27 июл 2014 

Информация о фильме
Название: Москва - не Москва
Год выхода: 2011
Жанр: Мелодрама, драма, комедия
Режиссёр: Сергей Сенцов
В ролях: Александр Самойленко, Сергей Фролов, Галина Данилова, Сергей Овчинников, Виталий Кищенко, Ксения Радченко, Алексей Коряков, Софья Райзман, Армен Арушанян, Михаил Парыгин

О фильме: Милиционер Лёша, приехавший в столицу из маленького провинциального города, знакомится с красавицей-студенткой Дашей. Чтобы снискать расположение девушки, он представляется ей студентом юрфака, живущим в самом центре Москвы. Отношения влюблённых набирают обороты, и теперь Лёше всё труднее рассказать Даше правду…



Выпущено: Мосфильм, Россия
Продолжительность: 01:28:39
Перевод: Не требуется

Файл
Качество: DVDRip [Исходник: DVD-9]
Видео: XviD, 2144 Кбит/с, 704x384 (16:9), 25 кадр/с
Аудио: Dolby АC3, 48000 Гц, 224 Кбит/с, 2 канала (Стерео)



General
Complete name : Moskva.ne.Moskva.2011.DVDRip.avi
Format : AVI
Format/Info : Audio Video Interleave
File size : 1.47 GiB
Duration : 1h 28mn
Overall bit rate : 2 376 Kbps
Movie name : Москва - не Москва (2011) DVDRip
Genre : Мелодрама, драма, комедия
Recorded date : 26.07.2014
Writing application : VirtualDubMod 1.5.10.3 | www.virtualdub-fr.org || (build 2550/release)
Writing library : VirtualDubMod build 2550/release
Copyright : rip by ivandubskoj

Video
ID : 0
Format : MPEG-4 Visual
Format profile : Advanced Simple@L5
Format settings, BVOP : 1
Format settings, QPel : No
Format settings, GMC : No warppoints
Format settings, Matrix : Custom
Codec ID : XVID
Codec ID/Hint : XviD
Duration : 1h 28mn
Bit rate : 2 144 Kbps
Width : 704 pixels
Height : 384 pixels
Display aspect ratio : 16:9
Frame rate : 25.000 fps
Color space : YUV
Chroma subsampling : 4:2:0
Bit depth : 8 bits
Scan type : Progressive
Compression mode : Lossy
Bits/(Pixel*Frame) : 0.317
Stream size : 1.33 GiB (90%)
Writing library : XviD 73

Audio
ID : 1
Format : AC-3
Format/Info : Audio Coding 3
Mode extension : CM (complete main)
Codec ID : 2000
Duration : 1h 28mn
Bit rate mode : Constant
Bit rate : 224 Kbps
Channel(s) : 2 channels
Channel positions : Front: L R
Sampling rate : 48.0 KHz
Bit depth : 16 bits
Compression mode : Lossy
Stream size : 142 MiB (9%)
Alignment : Split accross interleaves
Interleave, duration : 64 ms (1.60 video frames)
Interleave, preload duration : 500 ms
Title : Russian



Автор рипа - ivandubskoj



   Похожие торренты   Торрент   Размер 
В этой теме нет новых непрочитанных сообщений. Москва - не Москва (2011) DVDRip от ivandubskoj

44 | 4

745.74 МБ

В этой теме нет новых непрочитанных сообщений. Москва - не Москва (2011) DVDRip-AVC от R.G. AVI | AVC | Лицензия

2 | 5

1.46 ГБ

В этой теме нет новых непрочитанных сообщений. Москва - не Москва (2011) DVDRip | Лицензия

201 | 11

1.37 ГБ

В этой теме нет новых непрочитанных сообщений. Москва - не Москва (2011) DVDRip | Лицензия

42 | 23

697.21 МБ

В этой теме нет новых непрочитанных сообщений. Скорый «Москва-Россия» (2014) DVDRip от ivandubskoj

473 | 16

701.25 МБ

В этой теме нет новых непрочитанных сообщений. Футбол. Чемпионат России 2011/12. 41-й тур. ЦСКА (Москва) - Спартак (Москва) (2012) SATRip

0 | 2

1.45 ГБ

В этой теме нет новых непрочитанных сообщений. Футбол. Кубок России 2010/11. 1/2 финала. Спартак М (Москва) - ПФК ЦСКА (Москва) (2011) HDTVRip

2 | 5

2.19 ГБ




Вы не можете начинать темы
Вы не можете отвечать на сообщения
Вы не можете редактировать свои сообщения
Вы не можете удалять свои сообщения
Вы не можете добавлять вложения

Перейти:  
Для Мосгорсуда, Роскомнадзора и рекламодателей: mosgorsud-torrent[собачка]yandex.ru
 Вход
ppkBB3cker v.2 © 2008-2014 @ PPK
[ Time : 0.037s | 16 Queries | GZIP : Off ]

cron