img image001 image001 image001 image001 image001 image001 image001 image001 image001 image001 image001 image001 image001 image001 image001

Planets Sun Sun Sun
Статистика раздачи
Автор: Nickolas3434 | Размер: 16.84 ГБ | Добавлен: 27 июл 2014
Раздают: 8    Качают: 4
Скачать торрент
Скачать торрент
Описание торрента

СообщениеДобавлено: 27 июл 2014 

Информация о фильме
Название: Реальная сказка
Год выхода: 2011
Жанр: Фэнтези, драма, комедия, семейный
Режиссер: Андрей Мармонтов
В ролях: Сергей Безруков, Леонид Ярмольник, Максим Шибаев, Анастасия Добрынина, Ирина Безрукова, Георгий Штиль, Людмила Полякова, Анна Герман (мл.), Сергей Погосян, Антон Пампушный

О фильме:
Жили-были сестрица Олесенька и братец Саша. Нет, так не пойдет: кажется, прошла пора старых-добрых сказок. Даже сказочные персонажи, понимая это, переселились в наш мир: Василиса Премудрая стала учительницей, Леший бомжом, Иван-дурак ВДВшником, Кащей олигархом. Злые дела творить он, конечно, не бросил. И главным его злодеянием стало то, что он лишил нас веры в чудо. Люди стали эгоистичными, расчетливыми и прагматичными, что Кащею как бальзам на душу. Только одно не дает ему спокойно спать: благодаря сказкам, каждый ребенок знает, где искать его смерть. И какой же он после этого бессмертный? Кащей идет на крайние меры и безжалостно уничтожает все страницы сказок, где описана его страшная тайна. Маленькая девочка Олеся находит нетронутую старинную книгу сказок и, прочитав ее, вскоре исчезает. Старший брат девочки, школьник Саша, бросается на поиски, рассчитывая на поддержку новых знакомых Ивана-дурака и его жены Василисы, но они, вопреки ожиданиям, не спешат помогать ему в его борьбе с Кащеем. Саша же готов пойти на все, чтобы вернуть сестренку и подарить миру веру в чудо.



Страна: Россия
Студия: Централ Партнершип
Продолжительность: 01:41:58
Перевод: Не требуется

Файл
Кодек: MPEG2
Качество: Blu-Ray Remux
Видео: MPEG-2, 22.5 Мбит/с, 1920x1080, 25 кадр/с
Звук: Русский, Dolby AC3, 48000 Гц, 640 Кбит/с, 6 каналов (5.1)
Субтитры: Нет

General
Unique ID : 191554423389176112795481291996436604289 (0x901C0A3D578CB562A0D0D98E8263A581)
Complete name : Real'naya.skazka.2011.BDRemux.1080i.mkv
Format : Matroska
Format version : Version 4 / Version 2
File size : 16.8 GiB
Duration : 1h 41mn
Overall bit rate mode : Variable
Overall bit rate : 23.6 Mbps
Movie name : Реальная сказка (2011) Blu-Ray Remux (1080i)
Encoded date : UTC 2014-07-26 10:47:55
Writing application : mkvmerge v6.1.0 ('Old Devil') built on Mar 4 2013 09:10:42
Writing library : libebml v1.3.0 + libmatroska v1.4.0

Video
ID : 1
Format : MPEG Video
Format version : Version 2
Format profile : Main@High
Format settings, BVOP : No
Format settings, Matrix : Default
Codec ID : V_MPEG2
Codec ID/Info : MPEG 1 or 2 Video
Duration : 1h 41mn
Bit rate mode : Variable
Bit rate : 22.5 Mbps
Maximum bit rate : 25.0 Mbps
Width : 1 920 pixels
Height : 1 080 pixels
Display aspect ratio : 16:9
Frame rate mode : Constant
Frame rate : 25.000 fps
Color space : YUV
Chroma subsampling : 4:2:0
Bit depth : 8 bits
Scan type : Interlaced
Scan order : Top Field First
Compression mode : Lossy
Bits/(Pixel*Frame) : 0.435
Time code of first frame : 00:00:00:00
Time code source : Group of pictures header
Stream size : 16.0 GiB (95%)
Title : Реальная сказка (2011)
Language : Russian
Default : Yes
Forced : No

Audio
ID : 2
Format : AC-3
Format/Info : Audio Coding 3
Mode extension : CM (complete main)
Format settings, Endianness : Big
Codec ID : A_AC3
Duration : 1h 41mn
Bit rate mode : Constant
Bit rate : 640 Kbps
Channel(s) : 6 channels
Channel positions : Front: L C R, Side: L R, LFE
Sampling rate : 48.0 KHz
Bit depth : 16 bits
Compression mode : Lossy
Stream size : 467 MiB (3%)
Title : Original
Language : Russian
Default : Yes
Forced : No

Menu
00:00:00.000 : ru:Chapter 0
00:01:53.680 : ru:Chapter 0
00:10:36.400 : ru:Chapter 0
00:22:32.320 : ru:Chapter 0
00:31:32.560 : ru:Chapter 0
00:44:06.320 : ru:Chapter 0
00:55:09.520 : ru:Chapter 0
01:05:34.960 : ru:Chapter 0
01:15:24.400 : ru:Chapter 0

Релиз от: ivandubskoj



   Похожие торренты   Торрент   Размер 
В этой теме нет новых непрочитанных сообщений. Реальная сказка (2011) BDRip от ivandubskoj

117 | 8

746.67 МБ

В этой теме нет новых непрочитанных сообщений. Артист / The Artist (2011) Blu-Ray Remux 1080i от ivandubskoj | D

305 | 24

9.19 ГБ

В этой теме нет новых непрочитанных сообщений. Реальная сказка (2011) Blu-Ray

0 | 3

20.53 ГБ

В этой теме нет новых непрочитанных сообщений. Реальная сказка (2011) BDRip-AVC от R.G. AVI AVC

0 | 6

2.05 ГБ

В этой теме нет новых непрочитанных сообщений. Реальная сказка (2011) DVDRip

6 | 3

701.17 МБ

В этой теме нет новых непрочитанных сообщений. Реальная сказка (2011) BDRip-AVC

7 | 2

2.81 ГБ

В этой теме нет новых непрочитанных сообщений. Реальная сказка (2011) DVDRip | Лицензия

6 | 2

2.05 ГБ




Вы не можете начинать темы
Вы не можете отвечать на сообщения
Вы не можете редактировать свои сообщения
Вы не можете удалять свои сообщения
Вы не можете добавлять вложения

Перейти:  
Для Мосгорсуда, Роскомнадзора и рекламодателей: mosgorsud-torrent[собачка]yandex.ru
 Вход
ppkBB3cker v.2 © 2008-2014 @ PPK
[ Time : 0.040s | 17 Queries | GZIP : Off ]

Торрент трекер RUTOR.IN, Не можете зайти на rutor.org? Какой новый адрес рутор? Какое зеркало рутор? Не работает rutor.org и зеркала? Тогда наш торрент специально для вас. Rutor.in неофициальное зеркало rutor. В случае если у Вас заблокирован rutor или вдруг Вы не можете на него зайти, то Вы без труда сможете скачать бесплатно и без рекламы последние новинки кино, игр, сериалов и прочего у нас, на Rutor.in. Не нужно использовать прокси, чтобы зайти на рутор, достаточно воспользоваться нашим ресурсом. Все новые фильмы, игры, сериалы, книги и музыка за 2013 и 2014 годы через торрент бесплатно. Скачивайте фильмы в хорошем качестве, игры для пк, xbox, playstation без регистрации. У нас вы найдете новые Зарубежные сериалы и Русские сериалы 2013, 2014, 2015 годов. Оставайтесь с нами, качайте любимые фильмы, игры, сериалы, книги и музыку.